<?xml version="1.0" standalone="no"?>
<!DOCTYPE svg PUBLIC "-//W3C//DTD SVG 1.1//EN" "http://www.w3.org/Graphics/SVG/1.1/DTD/svg11.dtd" >
<svg xmlns="http://www.w3.org/2000/svg">
<metadata>Generated by IcoMoon</metadata>
<defs>
<font id="icomoon" horiz-adv-x="1024">
<font-face units-per-em="1024" ascent="960" descent="-64" />
<missing-glyph horiz-adv-x="1024" />
<glyph unicode="&#x20;" horiz-adv-x="512" d="" />
<glyph unicode="&#xe900;" glyph-name="1" d="M753.24 257.848c-13.587 13.68-35.686 13.754-49.366 0.172-13.68-13.587-13.759-35.691-0.172-49.371l49.538 49.199zM952.683-42.054c13.582-13.68 35.686-13.754 49.366-0.172 13.68 13.587 13.759 35.691 0.172 49.371l-49.538-49.199zM703.702 208.649l248.981-250.703 49.538 49.199-248.981 250.703-49.538-49.199zM445.506 150.444c-201.060 0-364.051 162.988-364.051 364.050h-69.818c0-239.62 194.25-433.868 433.869-433.868v69.818zM809.556 514.494c0-201.062-162.988-364.050-364.050-364.050v-69.818c239.62 0 433.868 194.248 433.868 433.868h-69.818zM445.506 878.545c201.062 0 364.050-162.991 364.050-364.051h69.818c0 239.619-194.248 433.869-433.868 433.869v-69.818zM445.506 948.364c-239.619 0-433.869-194.25-433.869-433.869h69.818c0 201.060 162.991 364.051 364.051 364.051v69.818z" />
<glyph unicode="&#xe901;" glyph-name="2" d="M209.416 865.539c1.52 47.104 40.936 84.058 88.040 82.538l612.3-19.752c44.971-1.451 81.084-37.568 82.534-82.538l19.755-612.297c1.519-47.104-35.439-86.521-82.543-88.040s-86.519 35.434-88.038 82.537l-13.401 415.431-650.783-650.783c-33.325-33.323-87.355-33.323-120.68 0s-33.325 87.356 0 120.679l650.782 650.783-415.43 13.401c-47.104 1.52-84.058 40.937-82.538 88.040z" />
<glyph unicode="&#xe902;" glyph-name="3" d="M979.525 908.027c27.851-31.991 24.494-80.502-7.497-108.353-100.595-87.577-202.423-234.85-290.945-389.776-87.566-153.254-158.196-306.95-197.937-401.309-11.424-27.126-37.346-45.336-66.738-46.884s-57.084 13.837-71.295 39.612c-29.232 53.018-82.176 122.43-139.912 188.205-57.652 65.681-115.060 122.047-150.462 150.066-33.259 26.323-38.882 74.624-12.559 107.884s74.624 38.882 107.883 12.559c45.779-36.232 110.146-100.337 170.575-169.181 26.454-30.137 53.12-62.277 77.861-94.554 39.995 85.923 90.922 187.773 149.219 289.803 90.448 158.297 202.644 324.248 323.455 429.423 31.991 27.851 80.502 24.495 108.353-7.496z" />
<glyph unicode="&#xe903;" glyph-name="4" horiz-adv-x="1050" d="M170.086 342.276c6.974-4.574 14.973-6.761 22.767-6.761 13.127 0 26.254 6.165 34.048 17.699 66.25 96.062 177.214 153.337 296.382 153.337 118.963 0 229.515-57.079 295.97-152.739 12.719-18.298 38.151-23.072 57.021-10.741 18.87 12.333 23.794 36.993 11.075 55.291-52.917 76.369-129.011 132.653-215.773 162.882 52.098 41.17 85.325 104.015 85.325 174.021 0 123.902-103.991 224.735-231.773 224.735s-231.773-100.832-231.773-224.735c0-69.607 32.818-131.859 84.301-173.226-88.198-30.029-165.318-87.108-218.852-164.672-12.717-18.298-7.589-42.958 11.281-55.091zM525.128 880.448c82.658 0 149.73-65.034 149.73-145.183s-67.072-145.184-149.73-145.184c-82.658 0-149.73 65.035-149.73 145.184s67.072 145.183 149.73 145.183zM688.805 255.764l-61.122-42.759c-9.024-6.365-12.923-17.699-9.437-28.042l24.613-69.212c1.027-3.182 1.436-6.165 1.231-8.948-0.819-18.495-24.818-31.224-42.457-18.894l-61.327 42.759c-4.513 3.182-9.846 4.773-15.179 4.773s-10.665-1.591-15.179-4.773l-61.122-42.759c-17.639-12.33-41.842 0.399-42.457 18.894-0.205 2.783 0.205 5.965 1.231 8.948l24.613 69.212c3.487 10.342-0.41 21.677-9.437 28.042l-61.122 42.759c-20.304 14.32-9.844 47.931 15.179 47.931h75.684c11.282 0 21.129 4.177 24.615 14.517l23.381 69.608c3.896 11.534 14.357 17.303 24.613 17.303 10.461 0 20.716-5.769 24.613-17.303l23.384-69.608c3.487-10.34 13.535-14.517 24.613-14.517h75.684c25.227 0 35.688-33.81 15.384-47.931zM1039.541 116.547l-61.122-42.759c-9.027-6.365-12.923-17.699-9.437-27.842l24.613-69.212c1.027-3.182 1.436-6.165 1.231-8.948-0.819-18.498-24.818-31.224-42.457-18.894l-61.327 42.559c-4.513 3.182-9.846 4.773-15.179 4.773s-10.665-1.591-15.179-4.773l-61.122-42.759c-17.639-12.33-41.842 0.399-42.457 18.894-0.205 2.783 0.205 5.965 1.231 8.951l24.613 69.209c3.487 10.342-0.412 21.677-9.437 27.842l-61.122 42.761c-20.304 14.318-9.844 47.928 15.179 47.928h75.684c11.282 0 21.126 4.177 24.613 14.52l23.384 69.608c3.896 11.534 14.357 17.3 24.613 17.3 10.461 0 20.716-5.766 24.613-17.3l23.381-69.608c3.487-10.342 13.538-14.52 24.613-14.52h75.687c25.227 0.2 35.688-33.611 15.384-47.732zM338.070 116.547l-61.122-42.759c-9.024-6.365-12.923-17.699-9.437-27.842l24.615-69.212c1.024-3.182 1.434-6.165 1.229-8.948-0.819-18.498-24.818-31.224-42.457-18.894l-61.327 42.559c-4.512 3.182-9.845 4.773-15.178 4.773s-10.666-1.591-15.178-4.773l-61.122-42.759c-17.639-12.33-41.842 0.399-42.457 18.894-0.205 2.783 0.205 5.965 1.231 8.951l24.613 69.209c3.487 10.342-0.41 21.677-9.435 27.842l-61.327 42.958c-20.306 14.121-9.845 47.931 15.383 47.931h75.685c11.281 0 21.126 4.177 24.613 14.517l23.382 69.608c3.897 11.537 14.358 17.303 24.613 17.303 10.461 0 20.716-5.766 24.613-17.303l23.382-69.608c3.487-10.34 13.537-14.517 24.613-14.517h75.685c25.23 0 35.69-33.81 15.384-47.931z" />
<glyph unicode="&#xe904;" glyph-name="5" horiz-adv-x="794" d="M35.685 532.979c-19.032 0-35.685 17.055-35.685 36.549v19.492c0 19.494 16.653 36.552 35.685 36.552s35.685-17.057 35.685-36.552v-19.492c0-19.494-16.653-36.549-35.685-36.549zM392.532-64c-7.137 0-14.272 2.437-21.409 7.309l-264.069 190.060c-66.612 48.732-107.055 126.705-107.055 209.551v116.959c0 21.929 16.653 36.549 35.685 36.549s35.685-14.62 35.685-36.549v-116.959c0-58.481 28.548-114.522 76.128-148.636l245.035-175.437 245.036 175.437c47.58 34.115 76.129 90.156 76.129 148.636v431.286c-114.191 12.183-221.245 48.733-321.165 107.212-99.917-58.48-206.971-95.029-321.163-107.212v-75.536c0-19.494-16.653-36.549-35.685-36.549s-35.685 17.055-35.685 36.549v107.212c0 19.493 14.274 34.113 30.927 36.55l30.927 2.437c104.676 12.183 204.594 46.296 294.995 99.902l16.653 9.747c11.894 7.31 23.79 7.31 35.684 0l19.034-9.747c90.401-53.606 190.318-85.282 292.616-97.466l30.927-2.437c19.031-4.873 33.306-19.493 33.306-38.986v-462.962c0-82.847-40.443-160.819-107.057-209.551l-266.445-190.060c-4.759-4.872-11.896-7.309-19.034-7.309zM371.095 345.357c-9.518 0-19.034 4.874-26.171 9.748l-126.085 129.142c-14.274 14.62-14.274 36.549 0 51.169s35.685 14.62 49.959 0l99.917-104.776 176.046 180.311c14.275 14.62 35.684 14.62 49.958 0s14.275-36.549 0-51.169l-202.214-207.114c-2.378-4.874-11.894-7.311-21.409-7.311z" />
<glyph unicode="&#xe905;" glyph-name="6" d="M148.1-64c-81.6 0-148 66.401-148 147.999v380.001c0 81.6 66.4 147.999 148 147.999s148-66.399 148-147.999v-380.001c0-81.597-66.4-147.999-148-147.999zM148.1 531.999c-37.6 0-68-30.397-68-67.999v-380.001c0-37.599 30.4-67.999 68-67.999s68 30.4 68 67.999v380.001c0 37.601-30.4 67.999-68 67.999zM512.1-64c-81.6 0-147.999 66.401-147.999 147.999v164.001c0 81.6 66.399 148.001 147.999 148.001s148.001-66.401 148.001-148.001v-164.001c0-81.597-66.401-147.999-148.001-147.999zM512.1 316.001c-37.599 0-67.999-30.403-67.999-68.001v-164.001c0-37.599 30.4-67.999 67.999-67.999 37.601 0 68.001 30.4 68.001 67.999v164.001c0 37.599-30.4 68.001-68.001 68.001zM876.101-64c-81.6 0-148.001 66.401-148.001 147.999v349.868c0 81.6 66.401 148.001 148.001 148.001s147.999-66.401 147.999-148.001v-350.134c0-81.331-66.399-147.732-147.999-147.732zM876.101 501.868c-37.601 0-68.001-30.4-68.001-68.001v-350.134c0-37.599 30.4-67.999 68.001-67.999 37.599 0 67.999 30.4 67.999 67.999v350.134c0 37.601-30.4 68.001-67.999 68.001zM653.701 517.868l221.332 232.532c15.199 16 14.666 41.333-1.334 56.533s-41.334 14.667-56.532-1.333l-221.601-232.8c-0.266-0.266-0.532-0.532-0.799-0.799-20.8-23.201-56.266-26.401-80.801-7.734l-254.134 230.666c-0.799 0.534-1.331 1.067-2.132 1.867-53.6 42.4-129.6 40-180.533-5.6-0.533-0.533-0.8-0.8-1.333-1.333l-64-63.2c-15.733-15.467-15.733-40.799-0.267-56.533s40.8-15.734 56.533-0.266l63.2 62.399c21.6 18.933 53.067 20 75.734 2.666l253.866-230.667c0.801-0.532 1.334-1.068 2.132-1.866 25.6-20.268 56.269-30.134 86.669-30.134 38.4-0.266 76.531 15.468 104 45.601zM1024.1 732v108c0 66.133-53.868 120-120 120h-107.999c-22.134 0-40-17.867-40-40s17.866-40 40-40h107.999c22.134 0 40-17.867 40-40v-108c0-22.133 17.866-40.001 40-40.001s40 17.868 40 40.001z" />
<glyph unicode="&#xe906;" glyph-name="7" horiz-adv-x="1451" d="M1306.667 568.177h-0.026l-361.993 361.996c-33.331 33.325-87.356 33.325-120.684 0-33.325-33.325-33.325-87.355 0-120.68l276.152-276.151h-1014.784c-47.128 0-85.333-38.205-85.333-85.333s38.205-85.333 85.333-85.333h1015.834l-277.202-277.206c-33.325-33.323-33.325-87.347 0-120.678 33.328-33.323 87.352-33.323 120.684 0l482.697 482.735-120.678 120.651z" />
<glyph unicode="&#xe907;" glyph-name="8" horiz-adv-x="878" d="M841.143 511.345c48.761-28.156 48.761-98.534 0-126.687l-713.143-411.736c-48.762-28.153-109.714 7.040-109.714 63.345v823.465c0 56.305 60.953 91.496 109.714 63.344l713.143-411.731z" />
<glyph unicode="&#xe908;" glyph-name="9" d="M990.254 500.002h-78.261v394.817c0.088 1.483-0.138 2.967-0.661 4.357-0.525 1.39-1.336 2.653-2.382 3.709s-2.301 1.878-3.685 2.416c-1.386 0.537-2.867 0.777-4.352 0.703h-436.8c-1.573 0.075-3.144-0.17-4.621-0.72-1.475-0.55-2.824-1.394-3.965-2.48l-82-83.698c-1.098-1.065-1.976-2.336-2.582-3.741s-0.93-2.915-0.952-4.445v-310.917h-254.799c-1.568 0.024-3.125-0.262-4.581-0.843s-2.783-1.445-3.903-2.542l-81.556-81.834c-1.064-1.12-1.892-2.443-2.434-3.89s-0.79-2.987-0.726-4.531v-405.176c-0.064-1.494 0.185-2.986 0.732-4.379s1.378-2.656 2.441-3.709c1.063-1.054 2.335-1.874 3.733-2.406s2.892-0.766 4.387-0.69h875.507c1.55-0.074 3.099 0.163 4.557 0.698 1.458 0.533 2.792 1.354 3.928 2.411l81.555 81.691c1.062 1.093 1.891 2.39 2.435 3.814 0.542 1.424 0.79 2.944 0.725 4.466v405.181c0 3.114-1.237 6.099-3.438 8.301s-5.187 3.438-8.301 3.438zM871.944 882.002l-57.902-58h-184.461l57.899 58h184.464zM887.994 865.848v-371.234l-56-57.902v371.236l56 57.9zM649.994 800.002v-50.001h-98v50.001h98zM469.165 882.002h184.378l-57.902-58h-183l56.525 58zM393.994 800.002h134v-62.676c-0.061-1.504 0.19-3.005 0.739-4.408 0.547-1.402 1.381-2.675 2.446-3.741 1.066-1.064 2.339-1.894 3.742-2.442s2.904-0.797 4.408-0.734h123.053c1.518-0.067 3.035 0.176 4.456 0.718 1.421 0.541 2.715 1.368 3.803 2.429s1.947 2.334 2.523 3.741c0.578 1.406 0.859 2.917 0.829 4.437v62.676h134v-382.001h-138v99.813c0.038 2.387-0.646 4.73-1.965 6.72-1.32 1.989-3.21 3.533-5.424 4.427s-4.645 1.098-6.976 0.582-4.451-1.725-6.083-3.467l-10.2-10.8-10.709 11.029c-1.109 1.154-2.435 2.075-3.904 2.71-1.467 0.634-3.048 0.97-4.646 0.986h-0.032c-1.606-0.019-3.194-0.36-4.667-1.002s-2.803-1.571-3.914-2.734l-10.618-10.987-10.616 11.011c-1.11 1.16-2.442 2.086-3.915 2.723-1.474 0.638-3.059 0.974-4.664 0.989h-0.032c-1.602-0.016-3.184-0.352-4.654-0.986-1.472-0.634-2.802-1.554-3.914-2.706l-10.731-10.984-10.248 10.774c-1.589 1.734-3.674 2.939-5.97 3.453-2.298 0.514-4.696 0.31-6.874-0.584-2.194-0.907-4.061-2.461-5.355-4.453s-1.952-4.328-1.89-6.702v-99.813h-138v382.001zM641.994 394.002h98v-52h-98v52zM555.994 418.002v70.118c1.864-1.35 4.099-2.090 6.4-2.118 1.586 0.011 3.154 0.334 4.614 0.952s2.784 1.518 3.896 2.648l10.749 11.035 10.626-11c1.115-1.154 2.453-2.070 3.93-2.696s3.066-0.949 4.67-0.949 3.192 0.322 4.67 0.949c1.477 0.626 2.813 1.542 3.93 2.696l10.658 11 10.822-11.035c1.106-1.133 2.427-2.035 3.885-2.653s3.026-0.939 4.61-0.947c2.344 0.027 4.626 0.765 6.541 2.118v-70.118h-90zM369.994 476.002v-58h-89.336l57.901 58h31.435zM301.994 394.002v-52h-100v52h100zM120.158 476.002h184.463l-57.902-58h-184.462l57.902 58zM297.994 14.002h-92v67.56c2.062-1.36 4.474-2.096 6.944-2.12 3.288-0.002 6.442 1.291 8.781 3.6l10.883 11.035 10.693-11c1.12-1.154 2.461-2.069 3.942-2.694 1.48-0.626 3.072-0.949 4.68-0.949 1.606 0 3.198 0.323 4.68 0.949 1.48 0.626 2.821 1.541 3.941 2.694l10.669 11 10.826-11.035c2.392-2.338 5.613-3.632 8.958-3.6 2.488 0.024 4.917 0.76 7 2.12l0.003-67.56zM735.994 14.002h-90v67.56c1.826-1.35 4.030-2.093 6.301-2.12 1.579 0.003 3.142 0.322 4.595 0.941s2.766 1.523 3.862 2.659l10.722 11.035 10.611-11c1.115-1.152 2.45-2.069 3.926-2.694s3.062-0.949 4.666-0.949 3.19 0.323 4.667 0.949c1.475 0.626 2.811 1.542 3.926 2.694l10.656 11 10.822-11.035c1.11-1.155 2.448-2.070 3.926-2.69 1.48-0.619 3.070-0.93 4.674-0.91 2.378 0.026 4.693 0.765 6.645 2.12v-67.56zM895.994 14.002h-136v97.256c0.013 2.394-0.694 4.736-2.030 6.722s-3.238 3.525-5.459 4.416-4.659 1.093-6.997 0.581c-2.339-0.514-4.469-1.717-6.114-3.456l-10.234-10.8-10.722 11.31c-2.216 2.406-5.296 3.834-8.565 3.971h-0.032c-1.624-0.070-3.218-0.462-4.69-1.15-1.472-0.69-2.794-1.662-3.89-2.862l-10.618-11.128-10.616 11.219c-1.101 1.189-2.426 2.147-3.898 2.821-1.474 0.672-3.064 1.046-4.683 1.101h-0.032c-3.267-0.139-6.349-1.566-8.568-3.97l-10.728-11.123-10.25 10.704c-1.571 1.728-3.638 2.93-5.92 3.437-2.28 0.509-4.662 0.298-6.818-0.602-2.186-0.922-4.038-2.488-5.314-4.488s-1.912-4.341-1.826-6.712v-97.246h-138v230c0 3.184-1.264 6.235-3.514 8.486s-5.302 3.514-8.486 3.514c-3.182 0-6.234-1.264-8.485-3.514-2.25-2.251-3.515-5.302-3.515-8.486v-230h-138v97.256c-0.066 2.422-0.843 4.77-2.235 6.75-1.394 1.982-3.339 3.509-5.595 4.39s-4.722 1.078-7.088 0.566c-2.366-0.512-4.531-1.71-6.221-3.445l-10.322-10.8-10.766 11.31c-2.232 2.405-5.322 3.832-8.6 3.97h-0.032c-1.624-0.072-3.218-0.462-4.69-1.152-1.474-0.688-2.795-1.661-3.891-2.862l-10.618-11.128-10.616 11.221c-1.099 1.189-2.424 2.147-3.898 2.819-1.472 0.674-3.064 1.048-4.682 1.102h-0.032c-3.269-0.139-6.349-1.566-8.568-3.97l-10.728-11.125-10.251 10.704c-1.699 1.736-3.872 2.933-6.248 3.438-2.374 0.507-4.848 0.302-7.107-0.59-2.259-0.891-4.205-2.429-5.595-4.421s-2.16-4.35-2.218-6.779v-97.256h-135.999v380h131.999v-63.232c0.066-3.306 1.384-6.462 3.69-8.834 2.304-2.371 5.424-3.776 8.726-3.934h123.051c3.315 0.154 6.45 1.555 8.774 3.923s3.667 5.528 3.758 8.845v63.232h134v-70c0-3.182 1.266-6.234 3.515-8.485 2.251-2.25 5.302-3.515 8.485-3.515 3.184 0 6.235 1.266 8.486 3.515 2.25 2.251 3.514 5.302 3.514 8.485v70h134v-63.232c0-6.627 4.499-12.768 11.126-12.768h123.050c6.629 0 11.824 6.141 11.824 12.768v63.232h132v-380zM903.83 418.002l-59.734 0.067 59.482 57.933h57.896l-57.643-58zM977.994 88.056l-58-57.107v370.442l58 57.2v-370.534z" />
<glyph unicode="&#xe909;" glyph-name="10" d="M997.114 560.222c-3.301 2.866-7.451 4.57-11.814 4.85v198.827c-0.046 41.731-16.645 81.739-46.154 111.247-29.507 29.508-69.515 46.106-111.245 46.154h-198.829c-0.326 5.068-2.57 9.823-6.275 13.296s-8.594 5.406-13.672 5.404h-194.248c-5.080 0.002-9.968-1.93-13.674-5.404s-5.949-8.228-6.275-13.296h-198.827c-41.731-0.048-81.739-16.646-111.247-46.154s-46.106-69.516-46.154-111.247v-198.827c-5.068-0.326-9.822-2.57-13.296-6.275s-5.406-8.594-5.404-13.674v-194.248c-0.004-5.078 1.928-9.968 5.402-13.672 3.474-3.706 8.229-5.947 13.298-6.269v-198.835c0.048-41.73 16.646-81.738 46.154-111.245 29.508-29.509 69.516-46.107 111.247-46.154h198.827c0.326-5.069 2.57-9.824 6.275-13.298 3.706-3.472 8.594-5.405 13.674-5.403h194.248c5.078-0.002 9.966 1.931 13.672 5.403 3.706 3.474 5.949 8.229 6.275 13.298h198.829c41.73 0.046 81.738 16.645 111.245 46.154 29.509 29.507 46.107 69.515 46.154 111.245v198.835c5.069 0.322 9.824 2.563 13.299 6.269 3.474 3.704 5.405 8.594 5.402 13.672v194.248c0 2.864-0.614 5.693-1.802 8.298s-2.922 4.925-5.085 6.802zM622.070 868.686c58.962-15.432 114.016-43.098 161.586-81.2 2.491-1.874 5.611-2.704 8.704-2.317 3.091 0.387 5.912 1.962 7.864 4.39 1.952 2.43 2.882 5.523 2.594 8.626s-1.773 5.972-4.138 8c-50.934 40.805-109.997 70.262-173.234 86.4l0.667 4.728h201.787c35.366-0.040 69.275-14.107 94.283-39.116 25.010-25.009 39.077-58.917 39.115-94.285v-201.8l-4.715-0.666c-16.018 62.755-45.152 121.405-85.485 172.082-1.054 1.317-2.376 2.394-3.877 3.165s-3.147 1.216-4.83 1.307c-1.685 0.093-3.37-0.173-4.944-0.776-1.576-0.603-3.006-1.533-4.198-2.726-2.082-2.080-3.323-4.856-3.49-7.795-0.165-2.939 0.757-5.835 2.592-8.138 37.654-47.325 65.014-101.99 80.328-160.496l-160.448-22.67c-13.45 40.23-36.064 76.786-66.059 106.781s-66.549 52.61-106.779 66.059l22.677 160.446zM748.038 364.086c-12.426-35.090-32.533-66.958-58.854-93.28s-58.189-46.43-93.278-58.856c-0.978 4.459-3.446 8.451-6.997 11.32s-7.971 4.445-12.536 4.466h-128.746c-4.565-0.021-8.987-1.595-12.538-4.466-3.55-2.869-6.018-6.862-6.995-11.323-35.091 12.422-66.963 32.53-93.286 58.851-26.322 26.323-46.429 58.194-58.853 93.285 4.459 0.979 8.453 3.448 11.322 6.998 2.869 3.552 4.445 7.973 4.466 12.538v128.754c-0.021 4.563-1.595 8.986-4.464 12.536s-6.862 6.019-11.32 6.997c12.421 35.091 32.528 66.963 58.851 93.285s58.194 46.43 93.285 58.851c0.978-4.459 3.446-8.451 6.997-11.32 3.55-2.87 7.971-4.445 12.536-4.466h128.746c4.565 0.021 8.986 1.595 12.536 4.466 3.55 2.869 6.019 6.861 6.997 11.32 35.093-12.421 66.965-32.526 93.286-58.848 26.323-26.322 46.429-58.194 58.85-93.286-4.458-0.979-8.451-3.446-11.32-6.998-2.869-3.55-4.443-7.971-4.464-12.536v-128.746c0.021-4.563 1.595-8.984 4.462-12.534 2.869-3.55 6.861-6.019 11.318-6.998v-0.008zM604.518 916l-31.622-223.744h-121.8l-31.614 223.744h185.037zM401.933 868.672l22.667-160.438c-40.229-13.451-76.784-36.067-106.778-66.061s-52.611-66.549-66.062-106.779l-160.438 22.674c19.575 74.667 58.659 142.784 113.241 197.366 54.582 54.58 122.701 93.661 197.37 113.234v0.004zM62.7 763.899c0.040 35.368 14.107 69.276 39.116 94.285s58.917 39.076 94.285 39.116h201.786l0.666-4.708c-79.829-20.408-152.696-61.921-210.958-120.184-58.264-58.264-99.776-131.131-120.184-210.96l-4.71 0.666v201.786zM44 540.518l223.742-31.621v-121.8l-223.742-31.616v185.037zM397.886-1.299h-201.786c-35.368 0.038-69.276 14.106-94.285 39.115s-39.076 58.917-39.116 94.283v201.787l4.71 0.666c20.407-79.829 61.919-152.696 120.182-210.958 58.264-58.262 131.131-99.774 210.96-120.182l-0.666-4.71zM401.933 27.323c-74.667 19.576-142.782 58.658-197.363 113.238s-93.663 122.696-113.238 197.363l160.434 22.675c13.451-40.23 36.066-76.784 66.061-106.779s66.549-52.61 106.779-66.061l-22.674-160.437zM419.482-20l31.622 223.744h121.8l31.614-223.744h-185.037zM622.067 27.322l-22.667 160.446c40.227 13.454 76.778 36.070 106.771 66.062 29.994 29.994 52.611 66.544 66.067 106.77l160.44-22.674c-19.574-74.667-58.656-142.784-113.237-197.368-54.581-54.582-122.698-93.666-197.363-113.243l-0.011 0.006zM961.299 132.099c-0.038-35.366-14.106-69.275-39.115-94.283-25.008-25.010-58.917-39.077-94.283-39.115h-201.787l-0.666 4.709c79.832 20.406 152.701 61.917 210.966 120.181 58.264 58.262 99.778 131.131 120.186 210.962l4.71-0.666-0.011-201.787zM980 355.482l-223.742 31.621v121.8l223.742 31.616v-185.037z" />
<glyph unicode="&#xe90a;" glyph-name="11" d="M546.597 214.485h-85.44c-3.182 0-6.235-1.264-8.486-3.515s-3.514-5.302-3.514-8.485 1.264-6.235 3.514-8.486c2.251-2.25 5.304-3.514 8.486-3.514h85.44c3.182 0 6.234 1.264 8.485 3.514s3.515 5.304 3.515 8.486-1.266 6.235-3.515 8.485c-2.251 2.251-5.302 3.515-8.485 3.515zM175.298 190.485h85.44c3.182 0 6.234 1.264 8.485 3.514 2.25 2.251 3.515 5.304 3.515 8.486s-1.266 6.235-3.515 8.485c-2.251 2.251-5.302 3.515-8.485 3.515h-85.44c-3.184 0-6.235-1.264-8.486-3.515s-3.514-5.302-3.514-8.485 1.264-6.235 3.514-8.486c2.251-2.25 5.302-3.514 8.486-3.514zM745.062 190.485h85.44c3.182 0 6.235 1.264 8.485 3.514s3.515 5.304 3.515 8.486-1.264 6.235-3.515 8.485c-2.25 2.251-5.302 3.515-8.485 3.515h-85.44c-3.182 0-6.235-1.264-8.485-3.515s-3.515-5.302-3.515-8.485 1.264-6.235 3.515-8.486c2.25-2.25 5.302-3.514 8.485-3.514zM546.597 295.859h-85.44c-3.182 0-6.235-1.264-8.486-3.515s-3.514-5.302-3.514-8.485 1.264-6.235 3.514-8.485c2.251-2.251 5.304-3.515 8.486-3.515h85.44c3.182 0 6.234 1.264 8.485 3.515s3.515 5.302 3.515 8.485-1.266 6.235-3.515 8.485c-2.251 2.251-5.302 3.515-8.485 3.515zM175.298 271.859h85.44c3.182 0 6.234 1.264 8.485 3.515 2.25 2.25 3.515 5.302 3.515 8.485s-1.266 6.235-3.515 8.485c-2.251 2.251-5.302 3.515-8.485 3.515h-85.44c-3.184 0-6.235-1.264-8.486-3.515s-3.514-5.302-3.514-8.485 1.264-6.235 3.514-8.485c2.251-2.251 5.302-3.515 8.486-3.515zM745.062 271.859h85.44c3.182 0 6.235 1.264 8.485 3.515s3.515 5.302 3.515 8.485-1.264 6.235-3.515 8.485c-2.25 2.251-5.302 3.515-8.485 3.515h-85.44c-3.182 0-6.235-1.264-8.485-3.515s-3.515-5.302-3.515-8.485 1.264-6.235 3.515-8.485c2.25-2.251 5.302-3.515 8.485-3.515zM947.406 366.899l-292.741 108.019c-1.814 0.67-3.763 0.891-5.682 0.645-1.917-0.246-3.747-0.952-5.333-2.058s-2.883-2.578-3.778-4.293c-0.894-1.714-1.362-3.619-1.362-5.552v-90.422l-8.542 3.245-26.459 530.836c-0.155 3.075-1.485 5.973-3.715 8.095s-5.19 3.305-8.269 3.305h-147.301c-3.093 0-6.066-1.194-8.299-3.333s-3.555-5.057-3.688-8.147l-9.715-223.8c-0.346-1.429-0.41-2.912-0.189-4.366l-9.557-220.117-41.91 15.915c-1.816 0.691-3.773 0.93-5.702 0.696s-3.773-0.933-5.373-2.035c-1.6-1.104-2.907-2.579-3.811-4.301-0.904-1.72-1.376-3.634-1.374-5.578v-91.158l-34.454 13.085-25.902 521.738c-0.154 3.075-1.483 5.973-3.714 8.094s-5.192 3.305-8.27 3.306h-147.3c-3.092 0-6.065-1.194-8.299-3.333s-3.555-5.057-3.689-8.147l-19.098-439.518-18.852 7.16c-1.817 0.691-3.774 0.93-5.703 0.696s-3.773-0.933-5.373-2.035c-1.6-1.104-2.908-2.579-3.811-4.301-0.903-1.72-1.375-3.634-1.375-5.578v-474.381c0-3.182 1.264-6.234 3.515-8.485 2.25-2.25 5.303-3.515 8.485-3.515h862.481c3.182 0 6.234 1.266 8.485 3.515 2.25 2.251 3.515 5.302 3.515 8.485v366.36c0 2.454-0.752 4.848-2.154 6.861s-3.386 3.547-5.686 4.398zM146.458 894.721h124.39l4.158-83.84h-132.201l3.652 83.84zM127.95 468.821h20.756c3.183 0 6.235 1.264 8.485 3.515s3.515 5.302 3.515 8.485-1.264 6.235-3.515 8.485c-2.25 2.251-5.303 3.515-8.485 3.515h-19.714l7.644 175.92h20.65c3.183 0 6.234 1.264 8.486 3.515 2.25 2.25 3.515 5.302 3.515 8.485s-1.266 6.235-3.515 8.485c-2.251 2.251-5.302 3.515-8.486 3.515h-19.6l4.092 94.139h134.429l9.64-194.099h-39.2c-3.184 0-6.235-1.264-8.486-3.515s-3.514-5.302-3.514-8.485 1.264-6.235 3.514-8.485c2.251-2.251 5.302-3.515 8.486-3.515h40.4l8.635-173.898-168.17 63.861 0.438 10.077zM256.886 1.28h-77.72v120.040h77.72v-120.040zM354.606 1.28h-73.72v132.040c0 3.184-1.266 6.235-3.515 8.486-2.251 2.25-5.302 3.514-8.485 3.514h-101.72c-3.184 0-6.235-1.264-8.486-3.514s-3.515-5.302-3.515-8.486v-132.040h-62.4v444.984l261.841-99.435v-345.549zM455.715 894.721h124.4l4.187-83.84h-132.221l3.634 83.84zM437.226 468.821h20.72c3.182 0 6.235 1.264 8.485 3.515s3.515 5.302 3.515 8.485-1.264 6.235-3.515 8.485c-2.25 2.251-5.302 3.515-8.485 3.515h-19.678l7.638 175.92h20.64c3.182 0 6.235 1.264 8.485 3.515s3.515 5.302 3.515 8.485-1.264 6.235-3.515 8.485c-2.25 2.251-5.302 3.515-8.485 3.515h-19.6l4.088 94.139h134.456l9.67-194.099h-39.254c-3.182 0-6.235-1.264-8.485-3.515s-3.515-5.302-3.515-8.485 1.264-6.235 3.515-8.485c2.25-2.251 5.302-3.515 8.485-3.515h40.453l9.114-183-169.064 64.2 0.818 18.84zM542.725 1.28h-77.699v120.040h77.699v-120.040zM826.646 1.28h-77.722v120.040h77.722v-120.040zM931.246 1.28h-80.6v132.040c0 3.184-1.266 6.235-3.515 8.486-2.251 2.25-5.302 3.514-8.485 3.514h-101.722c-3.182 0-6.234-1.264-8.485-3.514s-3.515-5.302-3.515-8.486v-132.040h-62.419v117.387c0 3.182-1.264 6.235-3.515 8.485s-5.302 3.515-8.485 3.515-6.235-1.264-8.485-3.515c-2.251-2.25-3.515-5.302-3.515-8.485v-117.387h-71.781v132.040c0 3.184-1.264 6.235-3.514 8.486s-5.302 3.514-8.486 3.514h-101.699c-3.182 0-6.235-1.264-8.485-3.514s-3.515-5.302-3.515-8.486v-132.040h-62.419v444.984l259.899-98.701v-187.563c0-3.182 1.264-6.234 3.515-8.485s5.302-3.515 8.485-3.515 6.235 1.266 8.485 3.515c2.251 2.251 3.515 5.302 3.515 8.485v286.443l268.741-99.166v-345.997z" />
<glyph unicode="&#xe90b;" glyph-name="12" d="M990.030 554.907c6.65 8.89 11.090 19.235 12.952 30.181s1.094 22.178-2.24 32.766l-55.102 177.2c-7.32 23.268-28.504 40.426-53.56 44.58l-0.35 16.754c-0.387 14.887-6.554 29.038-17.194 39.459-10.638 10.42-24.914 16.292-39.806 16.371l-646.027-0.142c-15.114-0.022-29.602-6.036-40.287-16.725s-16.696-25.178-16.713-40.291v-13.368c-24.972-4.224-46.042-21.34-53.34-44.528l-55.088-175.056c-3.342-10.595-4.115-21.832-2.254-32.784s6.3-21.306 12.952-30.202c6.497-8.65 14.657-15.912 24.001-21.363s19.682-8.981 30.409-10.379l1.116-455.778h-0.496c-17.922-0.022-35.104-7.152-47.776-19.824s-19.802-29.854-19.824-47.776v-8.216c0-3.182 1.264-6.235 3.515-8.486s5.303-3.514 8.485-3.514h957.2c3.182 0 6.235 1.264 8.486 3.514s3.514 5.304 3.514 8.486v8.216c-0.021 17.922-7.15 35.104-19.822 47.776-12.674 12.672-29.854 19.802-47.778 19.824h-8.44v450.779c12.347 0.286 24.469 3.36 35.461 8.992 10.99 5.632 20.565 13.677 28.008 23.533zM816.446 482.832h-157.578c-25.4 0-46.069-19.418-46.069-43.285v-367.944h-19.443v457.253c10.229-9.245 22.677-15.685 36.133-18.693 6.387-1.469 12.92-2.213 19.475-2.219 18.957-0.088 37.342 6.486 51.944 18.576 6.493 5.37 12.037 11.792 16.4 19 6.864-9.464 15.707-17.322 25.914-23.024s21.533-9.115 33.192-10c2.547-0.222 5.090-0.333 7.624-0.331 11.92-0.072 23.722 2.36 34.643 7.138 10.922 4.776 20.718 11.792 28.757 20.594 3.947 4.405 7.362 9.259 10.171 14.462 11.138-14.707 27.014-25.112 44.944-29.456v-453.299h-40.040v367.944c0 23.867-20.666 43.285-46.067 43.285zM838.514 439.547v-367.944h-201.712v367.944c0 10.634 9.901 19.285 22.069 19.285h157.578c12.166 0 22.066-8.651 22.066-19.285zM113.054 252.547l-0.066 27.155h456.372v-27.155h-456.306zM569.358 228.547v-156.944h-455.86l-0.384 156.936 456.244 0.008zM112.93 303.701l-0.548 223.674c10.738 1.381 21.089 4.906 30.438 10.366s17.505 12.746 23.981 21.419c2.688-4.869 5.914-9.422 9.614-13.573 7.834-8.613 17.395-15.477 28.061-20.144 10.666-4.669 22.195-7.037 33.837-6.949 2.488 0 5 0.109 7.501 0.326 11.989 0.878 23.63 4.416 34.082 10.355 10.45 5.939 19.446 14.133 26.336 23.982 2.782-4.518 6.034-8.728 9.702-12.562 7.806-7.994 17.144-14.333 27.454-18.637 10.312-4.302 21.384-6.483 32.557-6.41 3.467 0 6.93 0.21 10.371 0.624 10.862 1.182 21.374 4.547 30.904 9.894s17.882 12.562 24.554 21.216c4.49-7.606 10.267-14.373 17.075-20 15.269-12.531 34.427-19.35 54.181-19.282 6.472-0.002 12.923 0.725 19.232 2.165 13.81 3.074 26.59 9.664 37.102 19.133v-225.6h-456.435zM294.166 586.501c-3.461-23.49-24.2-41.488-50.422-43.765-9.128-0.901-18.341 0.328-26.914 3.592s-16.27 8.474-22.486 15.219c-4.71 5.083-8.218 11.16-10.264 17.781s-2.579 13.616-1.56 20.47l55.501 218.668 88.915-0.256-32.77-231.71zM351.166 818.143l104.4-0.3-23.541-232.499c-2.52-23.549-22.496-42.2-48.578-45.341-9.123-1.2-18.4-0.272-27.104 2.712s-16.6 7.942-23.067 14.488c-5.221 5.218-9.122 11.603-11.382 18.629s-2.816 14.488-1.618 21.771l30.89 220.54zM588.018 817.465l83.766-0.24 31.797-233.222c0.189-7.448-1.336-14.84-4.456-21.606-3.122-6.765-7.755-12.722-13.544-17.413-6.998-5.699-15.222-9.696-24.026-11.678s-17.949-1.896-26.714 0.254c-24.8 5.67-41.851 26.134-41.482 49.782v0.272c0 0.093 0 0.182 0 0.274l-5.342 233.577zM696.018 817.155l90.31-0.258 54.968-220.314c1.4-7.224 1.067-14.677-0.973-21.746s-5.728-13.555-10.762-18.922c-6.43-6.971-14.387-12.358-23.246-15.742-8.861-3.382-18.382-4.669-27.822-3.758-26.2 2.274-46.885 20.678-50.294 44.688l-32.181 236.052zM569.362 583.355c0.373-23.52-17.074-43.989-42.45-49.789-9.136-2.126-18.637-2.134-27.776-0.024-9.139 2.112-17.674 6.288-24.95 12.206-12.219 10.147-18.651 23.84-18.141 38.578l23.634 233.442 84.336-0.242 5.35-234.032-0.003-0.139zM880.306 816.623c19.659 0 37.112-11.832 42.43-28.732l55.101-177.2c2.24-6.997 2.76-14.429 1.515-21.669s-4.221-14.072-8.672-19.915c-5.512-7.211-12.638-13.029-20.806-16.989-8.166-3.96-17.149-5.95-26.224-5.811-26.44 0-49.016 16.2-54.89 39.339l-57.675 231.174 69.221-0.198zM155.698 855.061c0.011 8.75 3.49 17.14 9.676 23.328s14.573 9.673 23.323 9.688l646.013 0.142c8.621-0.049 16.886-3.45 23.045-9.484s9.73-14.227 9.955-22.846l0.318-15.232-712.331 2.040v12.364zM53.324 573.32c-4.451 5.845-7.426 12.677-8.672 19.917-1.246 7.238-0.726 14.672 1.516 21.667l55.088 175.056c5.332 16.939 22.784 28.771 42.4 28.771l69.617-0.2-58.017-228.628c-5.886-23.2-28.462-39.387-54.902-39.387-9.076-0.138-18.058 1.853-26.225 5.814-8.167 3.96-15.293 9.779-20.805 16.99zM935.002 47.603c10.907-0.013 21.414-4.107 29.453-11.477s13.030-17.482 13.99-28.346h-932.881c0.959 10.864 5.949 20.974 13.988 28.344s18.545 11.464 29.45 11.478h846z" />
<glyph unicode="&#xe90c;" glyph-name="13" d="M912 864h-96v16c0 12.73-5.058 24.939-14.059 33.941s-21.21 14.059-33.941 14.059c-12.731 0-24.939-5.057-33.941-14.059s-14.059-21.211-14.059-33.941v-16h-160v16c0 12.73-5.058 24.939-14.059 33.941s-21.211 14.059-33.941 14.059c-12.73 0-24.939-5.057-33.941-14.059s-14.059-21.211-14.059-33.941v-16h-160v16c0 12.73-5.058 24.939-14.059 33.941s-21.211 14.059-33.941 14.059c-12.73 0-24.939-5.057-33.941-14.059s-14.059-21.211-14.059-33.941v-16h-96c-21.21-0.024-41.544-8.46-56.542-23.458s-23.434-35.332-23.458-56.542v-736c0.024-21.21 8.46-41.544 23.458-56.542 14.998-14.997 35.332-23.434 56.542-23.458h800c21.21 0.024 41.544 8.461 56.542 23.458 14.997 14.998 23.434 35.333 23.458 56.542v736c-0.024 21.21-8.461 41.544-23.458 56.542-14.998 14.998-35.333 23.434-56.542 23.458zM752 880c0 4.244 1.686 8.313 4.686 11.314s7.070 4.686 11.314 4.686c4.243 0 8.314-1.686 11.314-4.686s4.686-7.070 4.686-11.314v-96c0-4.243-1.686-8.314-4.686-11.314s-7.070-4.686-11.314-4.686c-4.243 0-8.314 1.686-11.314 4.686s-4.686 7.070-4.686 11.314v96zM496 880c0 4.244 1.686 8.313 4.686 11.314s7.070 4.686 11.314 4.686c4.243 0 8.314-1.686 11.314-4.686s4.686-7.070 4.686-11.314v-96c0-4.243-1.686-8.314-4.686-11.314s-7.070-4.686-11.314-4.686c-4.243 0-8.314 1.686-11.314 4.686s-4.686 7.070-4.686 11.314v96zM240 880c0 4.244 1.686 8.313 4.686 11.314s7.070 4.686 11.314 4.686c4.243 0 8.314-1.686 11.314-4.686s4.686-7.070 4.686-11.314v-96c0-4.243-1.686-8.314-4.686-11.314s-7.070-4.686-11.314-4.686c-4.243 0-8.314 1.686-11.314 4.686s-4.686 7.070-4.686 11.314v96zM112 832h96v-48c0-12.73 5.058-24.939 14.059-33.941s21.211-14.059 33.941-14.059c12.73 0 24.939 5.058 33.941 14.059s14.059 21.211 14.059 33.941v48h160v-48c0-12.73 5.058-24.939 14.059-33.941s21.211-14.059 33.941-14.059c12.73 0 24.939 5.058 33.941 14.059s14.059 21.211 14.059 33.941v48h160v-48c0-12.73 5.058-24.939 14.059-33.941s21.21-14.059 33.941-14.059c12.731 0 24.939 5.058 33.941 14.059s14.059 21.211 14.059 33.941v48h96c12.726-0.015 24.926-5.077 33.925-14.075s14.061-21.198 14.075-33.925v-112h-896v112c0.015 12.726 5.077 24.926 14.075 33.925s21.199 14.060 33.925 14.075zM912 0h-800c-12.726 0.014-24.926 5.077-33.925 14.075s-14.060 21.198-14.075 33.925v592h896v-592c-0.014-12.726-5.077-24.926-14.075-33.925s-21.198-14.061-33.925-14.075zM880 528h-64c-4.243 0-8.314-1.686-11.314-4.686s-4.686-7.070-4.686-11.314v-64c0-4.243 1.686-8.314 4.686-11.314s7.070-4.686 11.314-4.686h64c4.243 0 8.314 1.686 11.314 4.686s4.686 7.070 4.686 11.314v64c0 4.243-1.686 8.314-4.686 11.314s-7.070 4.686-11.314 4.686zM864 464h-32v32h32v-32zM560 208h-64c-4.243 0-8.314-1.686-11.314-4.686s-4.686-7.070-4.686-11.314v-64c0-4.243 1.686-8.314 4.686-11.314s7.070-4.686 11.314-4.686h64c4.243 0 8.314 1.686 11.314 4.686s4.686 7.070 4.686 11.314v64c0 4.243-1.686 8.314-4.686 11.314s-7.070 4.686-11.314 4.686zM544 144h-32v32h32v-32zM400 528h-64c-4.243 0-8.314-1.686-11.314-4.686s-4.686-7.070-4.686-11.314v-64c0-4.243 1.686-8.314 4.686-11.314s7.070-4.686 11.314-4.686h64c4.243 0 8.314 1.686 11.314 4.686s4.686 7.070 4.686 11.314v64c0 4.243-1.686 8.314-4.686 11.314s-7.070 4.686-11.314 4.686zM384 464h-32v32h32v-32zM240 368h-64c-4.243 0-8.314-1.686-11.314-4.686s-4.686-7.070-4.686-11.314v-64c0-4.243 1.686-8.314 4.686-11.314s7.070-4.686 11.314-4.686h64c4.243 0 8.314 1.686 11.314 4.686s4.686 7.070 4.686 11.314v64c0 4.243-1.686 8.314-4.686 11.314s-7.070 4.686-11.314 4.686zM224 304h-32v32h32v-32zM400 368h-64c-4.243 0-8.314-1.686-11.314-4.686s-4.686-7.070-4.686-11.314v-64c0-4.243 1.686-8.314 4.686-11.314s7.070-4.686 11.314-4.686h64c4.243 0 8.314 1.686 11.314 4.686s4.686 7.070 4.686 11.314v64c0 4.243-1.686 8.314-4.686 11.314s-7.070 4.686-11.314 4.686zM384 304h-32v32h32v-32zM240 208h-64c-4.243 0-8.314-1.686-11.314-4.686s-4.686-7.070-4.686-11.314v-64c0-4.243 1.686-8.314 4.686-11.314s7.070-4.686 11.314-4.686h64c4.243 0 8.314 1.686 11.314 4.686s4.686 7.070 4.686 11.314v64c0 4.243-1.686 8.314-4.686 11.314s-7.070 4.686-11.314 4.686zM224 144h-32v32h32v-32zM400 208h-64c-4.243 0-8.314-1.686-11.314-4.686s-4.686-7.070-4.686-11.314v-64c0-4.243 1.686-8.314 4.686-11.314s7.070-4.686 11.314-4.686h64c4.243 0 8.314 1.686 11.314 4.686s4.686 7.070 4.686 11.314v64c0 4.243-1.686 8.314-4.686 11.314s-7.070 4.686-11.314 4.686zM384 144h-32v32h32v-32zM738.408 462.032l-80 12.224-35.931 76.542c-1.291 2.75-3.339 5.077-5.904 6.707s-5.542 2.494-8.581 2.494-6.014-0.866-8.579-2.494c-2.565-1.63-4.613-3.957-5.904-6.707l-35.917-76.542-80-12.224c-2.909-0.443-5.64-1.68-7.893-3.574s-3.938-4.374-4.872-7.165c-0.934-2.792-1.080-5.787-0.422-8.654 0.658-2.869 2.094-5.501 4.152-7.606l58.362-59.814-13.8-84.651c-0.477-2.96-0.114-5.994 1.050-8.757 1.162-2.762 3.078-5.142 5.528-6.87 2.45-1.726 5.336-2.73 8.33-2.896 2.992-0.166 5.973 0.51 8.598 1.955l71.368 39.448 71.368-39.448c2.629-1.453 5.613-2.138 8.611-1.974s5.89 1.168 8.344 2.898c2.456 1.728 4.374 4.114 5.538 6.883 1.162 2.768 1.523 5.808 1.040 8.771l-13.8 84.653 58.362 59.813c2.058 2.106 3.493 4.738 4.152 7.606 0.658 2.869 0.51 5.862-0.422 8.654-0.934 2.79-2.621 5.27-4.872 7.165-2.253 1.894-4.984 3.131-7.894 3.574l-0.010-0.010zM660.541 391.798c-1.749-1.792-3.053-3.971-3.806-6.358-0.755-2.389-0.938-4.92-0.534-7.392l9.8-60.102-50.272 27.8c-2.37 1.31-5.032 1.997-7.739 1.997s-5.371-0.686-7.741-1.997l-50.272-27.8 9.8 60.102c0.403 2.472 0.221 5.003-0.533 7.392-0.754 2.387-2.058 4.566-3.806 6.358l-42.245 43.304 57.666 8.8c2.598 0.397 5.058 1.427 7.162 3s3.789 3.64 4.906 6.018l25.067 53.422 25.070-53.413c1.117-2.378 2.802-4.445 4.906-6.018s4.563-2.603 7.16-3l57.666-8.8-42.253-43.314zM880 368h-64c-4.243 0-8.314-1.686-11.314-4.686s-4.686-7.070-4.686-11.314v-64c0-4.243 1.686-8.314 4.686-11.314s7.070-4.686 11.314-4.686h64c4.243 0 8.314 1.686 11.314 4.686s4.686 7.070 4.686 11.314v64c0 4.243-1.686 8.314-4.686 11.314s-7.070 4.686-11.314 4.686zM864 304h-32v32h32v-32zM880 208h-64c-4.243 0-8.314-1.686-11.314-4.686s-4.686-7.070-4.686-11.314v-64c0-4.243 1.686-8.314 4.686-11.314s7.070-4.686 11.314-4.686h64c4.243 0 8.314 1.686 11.314 4.686s4.686 7.070 4.686 11.314v64c0 4.243-1.686 8.314-4.686 11.314s-7.070 4.686-11.314 4.686zM864 144h-32v32h32v-32zM720 208h-64c-4.243 0-8.314-1.686-11.314-4.686s-4.686-7.070-4.686-11.314v-64c0-4.243 1.686-8.314 4.686-11.314s7.070-4.686 11.314-4.686h64c4.243 0 8.314 1.686 11.314 4.686s4.686 7.070 4.686 11.314v64c0 4.243-1.686 8.314-4.686 11.314s-7.070 4.686-11.314 4.686zM704 144h-32v32h32v-32z" />
<glyph unicode="&#xe90d;" glyph-name="14" d="M725.658 372.354c-20.691 5.048-40.898 11.91-60.386 20.506 21.782 28.55 31.938 71.216 24.466 108.029l-11.787 58.069c6.72 6.754 10.568 15.845 10.736 25.371 0 12.171-6.686 22.946-14.686 29.6v48.579c8.963 0.843 17.288 5.002 23.346 11.659 6.058 6.659 9.413 15.339 9.406 24.341 0.037 7.938-2.574 15.661-7.419 21.947s-11.648 10.779-19.333 12.765v36.189c-0.022 35.725-13.568 70.118-37.915 96.263s-57.688 42.104-93.322 44.668c-2.304 7.975-7.138 14.985-13.773 19.974s-14.71 7.687-23.011 7.687-16.378-2.698-23.013-7.687c-6.634-4.989-11.467-11.999-13.773-19.974-35.629-2.566-68.965-18.527-93.304-44.673s-37.877-60.538-37.89-96.259v-36.2c-7.645-2.050-14.386-6.595-19.149-12.915-4.765-6.32-7.278-14.051-7.142-21.965-0.032-9.589 3.739-18.798 10.488-25.608s15.923-10.667 25.512-10.725h0.291v-48.672c-8-6.702-14.414-17.2-14.414-29-0.013-8.834 3.186-17.37 9-24.019l-12.086-59.421c-7.531-37.096 2.782-79.87 24.874-108.514-20.534-8.253-41.661-14.946-63.202-20.021-74.648-17.893-126.171-84.106-126.171-161.011v-241.33c0-6.627 4.49-12 11.118-12h657.763c6.629 0 11.118 5.373 11.118 12v241.33c0.211 37.16-12.158 73.299-35.099 102.534-22.939 29.237-55.098 49.848-91.243 58.482zM684 359.749c6-2.25 14-4.309 20-6.178v-137.563h-20v143.741zM642.928 403.392c-4.973 2.512-9.952 5.133-14.938 7.866l-24 13.418v11.456c21.485 19.078 36.336 44.504 42.4 72.59l8.41 39.126c0.304 0.026 0.6 0.088 0.901 0.122l10.525-51.856c6.44-31.762-3.482-70-23.298-92.722zM400.261 383.592l19.739 10.139v-26.76c0.126-2.877 1.253-5.619 3.186-7.754 10.947-12.88 24.562-23.226 39.902-30.32 15.342-7.094 32.043-10.77 48.946-10.77s33.602 3.675 48.944 10.77c15.341 7.094 28.957 17.44 39.902 30.32 1.914 2.141 3.018 4.885 3.12 7.754v30.32l12.542-7.058c14.571-8.026 29.458-15.094 43.458-21.226v-153h-296v151.472c12 4.874 24.528 10.21 36.261 16.106v0.006zM382.65 596.008c3.213 0.066 6.27 1.39 8.515 3.688 2.243 2.299 3.496 5.387 3.485 8.6 0 23.2 14.054 45.712 35.154 53.712h120.099c2.349-0.2 4.68-0.579 6.971-1.136 9.341-1.426 18.757-2.288 28.2-2.581 12.902-0.47 25.118-5.931 34.072-15.234 8.955-9.301 13.949-21.715 13.928-34.626-0.014-3.227 1.23-6.333 3.474-8.654 2.242-2.32 5.301-3.674 8.526-3.77h6.562c1.626 0.078 3.25-0.174 4.773-0.742 1.525-0.566 2.918-1.438 4.096-2.56s2.115-2.472 2.755-3.966c0.64-1.496 0.971-3.106 0.971-4.731 0-1.627-0.331-3.237-0.971-4.731-0.64-1.496-1.578-2.845-2.755-3.966-1.178-1.123-2.571-1.994-4.096-2.562-1.523-0.568-3.147-0.819-4.773-0.741h-6.576c-2.758-0.032-5.426-1.005-7.558-2.755-2.133-1.752-3.605-4.179-4.173-6.88l-10.386-48.549c-5.328-24.976-19.064-47.368-38.914-63.435s-44.613-24.835-70.15-24.842c-25.538-0.006-50.304 8.749-70.163 24.806-19.858 16.056-33.605 38.442-38.946 63.414l-10.386 48.616c-0.57 2.699-2.042 5.125-4.176 6.874-2.133 1.75-4.798 2.72-7.558 2.75h-6.56c-1.624-0.078-3.248 0.173-4.773 0.741-1.523 0.568-2.917 1.438-4.094 2.562-1.178 1.122-2.115 2.47-2.755 3.966-0.64 1.494-0.971 3.104-0.971 4.731 0 1.626 0.331 3.235 0.971 4.731 0.64 1.494 1.578 2.845 2.755 3.966s2.571 1.994 4.094 2.56c1.525 0.568 3.149 0.821 4.773 0.742h6.56zM378 642.288v19.72h12.498c-5.155-6-8.498-12.445-12.498-19.72zM634.056 662.008h15.944v-19.659c-4 7.518-9.854 13.659-15.944 19.659zM580 418.952v-47.435c-8.734-9.256-19.262-16.635-30.941-21.688s-24.267-7.675-36.994-7.704c-12.725-0.029-25.323 2.536-37.026 7.536s-22.264 12.333-31.040 21.549v49.934c20.414-12.459 43.789-19.232 67.701-19.619s47.493 5.627 68.299 17.419v0.008zM550 886.152c29.030-2.774 55.981-16.276 75.584-37.866s30.45-49.716 30.416-78.878v-35.4h-89.382c2.813 7.326 4.256 15.109 4.258 22.957 0 17.891-6.875 34.27-20.875 45.117v84.070zM498 899.51c0 3.713 1.475 7.274 4.101 9.9s6.186 4.1 9.899 4.1c3.714 0 7.274-1.475 9.899-4.1s4.101-6.187 4.101-9.9v-84.928c-9.178 2.408-18.822 2.408-28 0v84.928zM512 792.378c6.939-0.008 13.72-2.072 19.485-5.933s10.258-9.346 12.907-15.758 3.339-13.467 1.981-20.272c-1.358-6.803-4.704-13.053-9.613-17.957s-11.163-8.242-17.968-9.592c-6.806-1.352-13.861-0.654-20.27 2.003s-11.888 7.155-15.742 12.925c-3.854 5.77-5.91 12.554-5.91 19.491 0.013 9.312 3.718 18.237 10.306 24.818s15.515 10.28 24.826 10.285v-0.010zM368 769.408c-0.034 29.162 10.811 57.289 30.414 78.88s46.555 35.094 75.586 37.867v-84.080c-14-10.847-20.877-27.226-20.877-45.116 0.003-7.846 1.446-15.627 4.259-22.952h-89.382v35.4zM353.712 686.008c-3.182 0-6.235 1.264-8.485 3.514s-3.515 5.304-3.515 8.486 1.264 6.235 3.515 8.485c2.25 2.251 5.302 3.515 8.485 3.515h122.026c10.362-8.078 23.123-12.466 36.262-12.466s25.901 4.387 36.262 12.466h122.026c3.182 0 6.235-1.264 8.485-3.515s3.515-5.302 3.515-8.485-1.264-6.235-3.515-8.486c-2.25-2.25-5.302-3.514-8.485-3.514h-316.576zM360 496.112l10.563 52.053c0.787-0.12 1.568-0.25 2.366-0.317l8.382-39.126c5.691-26.405 19.168-50.499 38.688-69.17v-18.968l-30.618-15.555c-1.728-0.867-3.48-1.701-5.226-2.546-20.098 22.608-30.598 61.95-24.157 93.629zM320 353.429c6.763 1.534 13.438 3.429 20 5.675v-143.096h-20v137.421zM712-17.992h-400v100c0 3.182-1.264 6.235-3.515 8.485s-5.302 3.515-8.485 3.515-6.235-1.264-8.485-3.515c-2.251-2.25-3.515-5.302-3.515-8.485v-100h-92v229.33c0 63.349 40 118.2 100 135.811v-134.541c-2.368-1.994-4.301-4.454-5.678-7.227-1.376-2.774-2.166-5.802-2.322-8.893v-30.48c0-3.182 1.264-6.235 3.515-8.486s5.302-3.514 8.485-3.514 6.235 1.264 8.485 3.514c2.251 2.251 3.515 5.304 3.515 8.486v26h400v-210zM828-17.992h-92v214.49c-0.15 3.098-0.938 6.13-2.314 8.909-1.378 2.778-3.314 5.242-5.686 7.237v134.506c60-17.618 100-72.462 100-135.811v-229.33z" />
<glyph unicode="&#xe90e;" glyph-name="15" d="M919.678 352.096l-52.363 213.904h20.317c7.734 0 14.368 5.461 14.368 13.2v47.701c0 43.718-42.693 79.099-94.717 79.099h-179.283v26.109c0.027 12.339-2.384 24.562-7.093 35.966-4.71 11.405-11.626 21.766-20.352 30.49s-19.088 15.639-30.493 20.347-23.627 7.117-35.966 7.088h-401.746c-12.362 0.038-24.61-2.362-36.044-7.061s-21.83-11.607-30.592-20.327c-8.763-8.72-15.721-19.082-20.476-30.493s-7.215-23.646-7.237-36.010v-557.2c0-12.138 9.87-22.909 22-22.909h83.746c3.564-20.739 13.564-39.83 28.582-54.571 18.645-18.014 43.55-28.094 69.477-28.115s50.85 10.018 69.523 28.003c15.027 14.779 25.027 33.909 28.584 54.683h362.262c3.565-20.739 13.565-39.83 28.581-54.571 18.645-18.014 43.552-28.094 69.478-28.115s50.85 10.018 69.522 28.003c15.027 14.779 25.027 33.909 28.586 54.683h65.659c12.13 0 22 10.771 22 22.901v70.342c0 41.406-27.826 90.208-66.322 106.853zM889.381 358h-16.917l-21.464 85.84c-0.778 2.982-2.546 5.611-5.014 7.458s-5.491 2.798-8.571 2.702h-163.414v112h164.485l50.896-208zM674 426h152.469l17.142-68h-169.611v68zM807.283 678c35.965 0 66.717-23.299 66.717-51.099v-32.901h-213.354c-3.861-0.157-7.52-1.771-10.237-4.517s-4.294-6.421-4.41-10.283v-277.2h-18v376h179.283zM66 732.109c0.019 8.686 1.751 17.285 5.098 25.299 3.347 8.016 8.242 15.293 14.406 21.413 6.163 6.122 13.474 10.966 21.513 14.258 8.039 3.29 16.648 4.963 25.334 4.922h401.746c8.662 0.032 17.246-1.65 25.256-4.949s15.288-8.15 21.414-14.275c6.126-6.125 10.979-13.402 14.28-21.411s4.984-16.592 4.954-25.256v-430.109h-534v430.109zM313.182 167.226c-0.442-18.64-8.16-36.366-21.502-49.39-13.344-13.022-31.253-20.307-49.898-20.296-18.645 0.013-36.546 7.318-49.874 20.358-13.326 13.038-21.022 30.776-21.44 49.416-0.014 0.528-0.013 1.070-0.013 1.6-0.021 18.082 6.848 35.491 19.21 48.686l0.152 0.16 0.264 0.272c6.662 7.027 14.688 12.622 23.584 16.446s18.478 5.797 28.162 5.797c9.683 0 19.266-1.973 28.162-5.797s16.92-9.419 23.582-16.446l0.216-0.224 0.202-0.211c12.365-13.195 19.237-30.608 19.213-48.693-0.002-0.52-0.002-1.062-0.019-1.678zM314.222 236.955c-0.136 0.146-0.277 0.294-0.419 0.438-9.275 9.76-20.44 17.531-32.814 22.842s-25.699 8.050-39.165 8.050-26.79-2.738-39.165-8.050c-12.374-5.31-23.539-13.082-32.816-22.842-0.139-0.144-0.283-0.294-0.427-0.45-0.070-0.072-0.139-0.6-0.21-0.672-14.608-15.397-23.746-35.17-26.006-56.272h-77.2v94h580v-94h-305.549c-2.259 21.101-11.395 40.872-26 56.269-0.075 0.075-0.157 0.613-0.229 0.686zM800.254 97.541c-18.621 0.107-36.47 7.445-49.784 20.462s-21.048 30.698-21.574 49.31c-0.016 0.528-0.014 1.070-0.014 1.6-0.050 9.405 1.76 18.726 5.325 27.429 3.563 8.702 8.813 16.616 15.445 23.283 6.634 6.667 14.518 11.958 23.202 15.568s17.995 5.47 27.4 5.47 18.717-1.859 27.4-5.47c8.685-3.61 16.57-8.901 23.202-15.568s11.882-14.581 15.446-23.283c3.563-8.702 5.373-18.024 5.323-27.429 0-0.528 0-1.070-0.014-1.686-0.542-18.598-8.285-36.261-21.597-49.261s-31.152-20.323-49.758-20.426zM958 180h-59.125c-2.925 24.098-14.571 46.291-32.741 62.389-18.171 16.098-41.605 24.984-65.88 24.984s-47.71-8.886-65.88-24.984c-18.17-16.098-29.818-38.291-32.742-62.389h-27.632v150h217.65c29.246 0 66.35-40.080 66.35-84.757v-65.243z" />
<glyph unicode="&#xe90f;" glyph-name="16" d="M724.213 368.763c-34.102 8.461-66.928 21.421-97.613 38.536l-24.6 13.262v9.912c23.25 20.467 38.634 48.4 43.502 78.99l8.619 55.022c19.864 2.12 34.246 19.941 32.126 39.805-1.066 9.982-6.232 19.070-14.262 25.094 4.16 12.254 7.304 24.83 9.4 37.6 13.915 5.304 23.054 18.71 22.907 33.6 0.224 16.178-10.632 30.414-26.293 34.48v35.776c0.085 73.398-56.55 134.39-129.752 139.742-4.72 16.218-19.568 27.384-36.459 27.416-16.816-0.046-31.566-11.234-36.142-27.416-73.182-5.36-129.781-66.364-129.646-139.742v-35.776c-15.656-4.062-26.514-18.291-26.298-34.466-0.154-14.472 8.467-27.597 21.811-33.2 2.133-10.078 5.115-19.955 8.915-29.53l4.347-10.942c-14.619-13.611-15.438-36.499-1.824-51.12 5.936-6.376 13.974-10.394 22.634-11.318l8.619-55.019c4.442-27.952 17.682-53.76 37.795-73.67v-19.293l-30.883-15.379c-29.045-14.274-59.645-25.136-91.189-32.366-73.922-17.568-126.059-83.664-125.928-159.645v-239.117c0.117-6.674 5.568-12.018 12.245-12h651.512c6.675-0.018 12.128 5.326 12.243 12v239.117c0.197 75.957-51.891 142.067-125.787 159.646zM682 356.013c6-2.2 14-4.219 20-6.050v-135.963h-20v142.013zM550 886.4c59.096-6.298 103.942-56.128 104-115.558v-34.842h-87.736c2.781 7.203 4.234 14.85 4.29 22.573-0.267 17.122-7.728 33.339-20.554 44.685v83.142zM498 899.754c0 7.732 6.269 14 14 14 7.733 0 14-6.268 14-14v-84.018c-9.186 2.346-18.814 2.346-28 0v84.018zM512 793.496c19.144-0.011 34.653-15.541 34.64-34.685-0.011-19.144-15.539-34.651-34.683-34.64-19.134 0.013-34.64 15.528-34.64 34.662 0.027 19.141 15.544 34.646 34.683 34.662zM370 770.842c0.058 59.43 44.904 109.26 104 115.558v-83.142c-12.826-11.346-20.286-27.564-20.554-44.685 0.056-7.723 1.51-15.37 4.29-22.573h-87.736v34.842zM343.274 700c0.006 6.602 5.341 11.962 11.942 12h120.826c21.144-16.47 50.773-16.47 71.917 0h120.826c6.629 0 12-5.371 12-12s-5.371-12-12-12h-313.568c-6.602 0.038-11.936 5.398-11.942 12zM374 664v-20.171l-1.211 2.57c-2.326 5.746-4.317 11.621-5.958 17.6l7.17 0.002zM407.917 513.17l-10.176 64.83c-0.931 5.81-5.974 10.062-11.856 10h-6.448c-6.629 0-12 5.373-12 12s5.371 12 12 12h6.448c6.779 0.317 12.114 5.904 12.115 12.691v39.309h234v-39.309c-0.134-6.728 5.101-12.347 11.822-12.691h6.448c6.627 0 12-5.373 12-12s-5.373-12-12-12h-6.448c-5.885 0.064-10.926-4.19-11.856-10l-10.166-64.891c-9.232-59.059-64.592-99.448-123.65-90.216-46.506 7.269-82.982 43.765-90.226 90.277h-0.008zM578 413.701v-45.83c-16-18.518-40.586-29.056-66-29.056s-50 10.538-66 29.056v49.098c2.166-1.326 4.374-2.592 6.624-3.8 38.88-20.798 85.581-20.798 124.461 0 0.315 0.174 0.605 0.363 0.915 0.533zM366 363.752c12 4.822 24.63 10.102 36.234 15.934l19.766 9.965v-26.333c-0.102-2.808 0.808-5.558 2.56-7.754 40.688-48.352 112.87-54.565 161.222-13.878 5.014 4.219 9.658 8.862 13.878 13.878 1.69 2.218 2.522 4.971 2.341 7.754v29.851l12.632-6.899c14.414-7.928 29.368-14.93 43.368-21v-151.27h-292.002v149.752zM322 349.822c6 1.758 14 3.6 20 5.554v-141.376h-20v135.822zM710-18h-396v100c0 6.627-5.371 12-12 12-6.627 0-12-5.373-12-12v-100h-92v227.117c0.237 61.891 40.789 116.398 100 134.418v-133.502c-4.784-4.237-7.666-10.218-8-16.6v-27.432c0-6.627 5.373-12 12-12 6.629 0 12 5.373 12 12v24h396v-208zM826-18h-92v211.438c-0.334 6.382-3.216 12.363-8 16.6v133.496c59.213-18.019 99.765-72.526 100-134.418v-227.117z" />
<glyph unicode="&#xe914;" glyph-name="21" horiz-adv-x="1609" d="M746.285 16.001l-668.571 665.142c-30.857 34.285-30.857 85.715 0 116.571l78.857 78.858c30.858 30.857 82.286 30.857 116.572 0l531.428-528 528.001 528c34.285 30.857 85.713 30.857 116.571 0l78.855-78.858c30.852-30.856 30.852-82.286 0-116.571l-668.57-665.142c-30.858-30.858-82.286-30.858-113.143 0z" />
<glyph unicode="&#xe915;" glyph-name="22" d="M1009.778 446.216c0-256.918-192-467.447-437.333-495.994v385.377h117.333l17.778 135.595h-131.556v82.071c0 39.251 10.667 64.229 67.556 64.229h71.111v124.89c-35.556 3.568-67.556 3.569-103.111 3.569-103.111 0-174.222-64.23-174.222-178.416v-99.912h-117.333v-135.594h117.333v-381.81c-241.778 39.253-423.111 246.215-423.111 495.994 0 274.759 224 499.562 497.778 499.562s497.778-224.803 497.778-499.562z" />
<glyph unicode="&#xe916;" glyph-name="23" d="M516.5 924.053c-260.4 0-471.579-211.179-471.579-471.579 0-260.398 211.179-471.579 471.579-471.579 260.398 0 471.579 211.181 471.579 471.579 0 260.4-211.181 471.579-471.579 471.579zM758.94 570.276c0.237-5.232 0.35-10.5 0.35-15.787 0-161.516-122.945-347.771-347.791-347.787-69.024 0-133.257 20.221-187.36 54.913 9.56-1.126 19.305-1.698 29.16-1.698 57.271 0 109.974 19.526 151.826 52.316-53.513 0.997-98.626 36.325-114.192 84.9 7.461-1.434 15.124-2.21 22.971-2.21 11.163 0 21.958 1.514 32.237 4.312-55.927 11.199-98.056 60.625-98.056 119.811 0 0.553 0 1.050 0.019 1.566 16.468-9.155 35.313-14.663 55.355-15.289-32.827 21.903-54.398 59.334-54.398 101.74 0 22.4 6.060 43.381 16.56 61.434 60.274-73.96 150.371-122.611 251.945-127.713-2.1 8.953-3.187 18.292-3.187 27.871 0 67.476 54.747 122.224 122.245 122.224 35.161 0 66.921-14.866 89.212-38.629 27.853 5.49 53.992 15.676 77.625 29.677-9.135-28.534-28.516-52.463-53.755-67.605 24.722 2.965 48.3 9.523 70.187 19.25-16.341-24.518-37.101-46.053-60.955-63.295z" />
<glyph unicode="&#xe917;" glyph-name="24" d="M512 945.778c-274.867 0-497.778-222.911-497.778-497.778 0-274.864 222.911-497.778 497.778-497.778 274.864 0 497.778 222.913 497.778 497.778 0 274.867-222.913 497.778-497.778 497.778zM358.136 177.158h-128.469v386.479h128.469v-386.479zM293.911 616.408h-0.836c-43.108 0-70.992 29.672-70.992 66.772 0 37.917 28.739 66.772 72.684 66.772s70.992-28.855 71.827-66.772c0-37.080-27.883-66.772-72.683-66.772zM821.362 177.158h-128.449v206.751c0 51.958-18.608 87.405-65.081 87.405-35.487 0-56.622-23.897-65.918-46.978-3.403-8.264-4.219-19.794-4.219-31.344v-215.834h-128.45c0 0 1.692 350.234 0 386.498h128.45v-54.717c17.071 26.328 47.621 63.797 115.773 63.797 84.526 0 147.894-55.242 147.894-173.95v-221.628z" />
<glyph unicode="&#xe918;" glyph-name="25" d="M512 945.778c-274.803 0-497.778-222.974-497.778-497.778 0-274.802 222.974-497.778 497.778-497.778 274.261 0 497.778 222.976 497.778 497.778s-223.516 497.778-497.778 497.778zM840.789 716.325c59.392-72.345 95.027-164.666 96.102-264.545-14.034 2.697-154.408 31.313-295.856 13.496-3.243 7.018-5.939 14.579-9.182 22.135-8.636 20.515-18.352 41.571-28.075 61.547 156.57 63.706 227.834 155.489 237.010 167.367zM512 872.353c107.975 0 206.774-40.492 281.822-106.898-7.561-10.798-71.805-96.64-222.976-153.328-69.645 127.953-146.847 232.691-158.725 248.888 31.852 7.559 65.327 11.338 99.879 11.338zM331.139 832.401c11.337-15.117 86.921-120.395 157.646-245.648-198.679-52.911-374.143-51.831-393.039-51.831 27.534 131.734 116.616 241.332 235.393 297.48zM86.567 447.458c0 4.322 0 8.64 0 12.958 18.356-0.538 224.594-3.239 436.77 60.467 12.419-23.753 23.756-48.048 34.555-72.342-5.4-1.621-11.34-3.242-16.737-4.86-219.195-70.724-335.811-264.004-345.529-280.2-67.486 75.042-109.058 174.922-109.058 283.977zM512 22.568c-98.261 0-188.961 33.473-260.767 89.623 7.559 15.656 93.939 181.942 333.653 265.62 1.075 0.546 1.621 0.546 2.697 1.081 59.927-154.943 84.224-285.059 90.704-322.31-51.291-22.135-107.44-34.014-166.286-34.014zM749.010 95.454c-4.318 25.913-26.994 150.090-82.603 302.877 133.353 21.056 249.97-13.5 264.545-18.359-18.352-118.232-86.38-220.274-181.942-284.518z" />
<glyph unicode="&#xe919;" glyph-name="26" horiz-adv-x="1463" d="M631.458-28.314l794.688 780.377c48.94 47.622 48.94 124.597 0 172.22-48.946 47.622-128.061 47.622-177.007 0l-706.186-694.266-329.236 322.128c-48.947 47.622-128.062 47.622-177.008 0s-48.946-124.599 0-172.221l417.742-408.238c24.411-23.751 56.456-35.686 88.503-35.686s64.094 11.935 88.504 35.686z" />
<glyph unicode="&#xe91a;" glyph-name="27" d="M849.417 930.050c39.932 39.933 104.677 39.933 144.611 0s39.933-104.678 0-144.61l-819.46-819.46c-39.933-39.933-104.678-39.933-144.611 0s-39.933 104.677 0 144.611l819.46 819.459zM994.020 110.56c39.933-39.933 39.933-104.677 0-144.611-39.933-39.932-104.677-39.932-144.611 0l-819.459 819.46c-39.933 39.933-39.933 104.678 0 144.611s104.678 39.933 144.61 0l819.46-819.46z" />
<glyph unicode="&#xe91b;" glyph-name="28" d="M199.436 531.383c79.174-156.219 206.084-283.126 362.301-362.301l120.93 121.417c7.192 7.202 16.252 12.249 26.161 14.575s20.27 1.838 29.915-1.409c62.986-20.529 128.8-31.061 195.048-31.208 7.212 0 14.356-1.429 21.012-4.203 6.661-2.775 12.702-6.841 17.779-11.966 5.081-5.12 9.089-11.201 11.805-17.881 2.716-6.685 4.081-13.839 4.018-21.051v-192.61c0-14.482-5.754-28.375-15.994-38.619-10.245-10.24-24.137-15.994-38.619-15.994-247.745 0.258-485.257 98.855-660.349 274.13s-273.442 412.889-273.442 660.636c0 14.614 5.805 28.629 16.139 38.962s24.349 16.139 38.962 16.139h195.048c14.142-0.631 27.487-6.729 37.22-17.009s15.095-23.937 14.955-38.092c0.174-66.284 10.872-132.119 31.695-195.048 3.27-9.837 3.724-20.392 1.312-30.473s-7.596-19.287-14.965-26.578l-120.93-121.417z" />
<glyph unicode="&#xe91c;" glyph-name="29" d="M1012.001 257.441c0 139.999-113.92 254.080-254.080 254.080-58.723 0-112.64-20.162-155.681-53.76-27.838 16.318-57.121 29.118-87.68 38.078 79.038 40.32 133.281 122.241 133.281 216.801 0 134.24-109.122 243.36-243.361 243.36s-243.36-109.12-243.36-243.36c0-94.72 54.56-176.799 133.76-216.958-163.2-47.682-282.88-198.404-282.88-376.803v-157.758c0-11.681 9.44-21.12 21.12-21.12h743.2c11.681 0 21.12 9.439 21.12 21.12v45.758c121.439 19.2 214.561 124.003 214.561 250.562zM203.52 712.64c0 110.88 90.24 200.96 200.96 200.96 110.881 0 200.96-90.24 200.96-200.96 0-110.88-90.24-200.958-200.96-200.958s-200.96 90.238-200.96 200.958zM54.4-17.598v136.638c0 193.28 157.12 350.402 350.398 350.402 57.761 0 114.242-14.402 165.12-41.6-40.799-45.122-65.92-104.642-65.92-170.244 0-139.198 112.483-252.317 251.363-253.919v-21.277h-700.961zM776.481 46.72c-0.161 0-0.161 0 0 0-6.082-0.479-12.321-0.958-18.56-0.958-116.641 0-211.683 94.877-211.683 211.679 0 116.641 94.881 211.679 211.683 211.679 116.637 0 211.679-94.881 211.679-211.679 0-110.402-85.12-201.282-193.119-210.721zM921.761 307.836c-5.921 18.238-22.082 30.080-41.282 30.080h-62.080l-19.2 59.041c-5.917 18.238-22.078 30.080-41.278 30.080s-35.361-11.842-41.282-30.080l-19.2-59.041h-62.080c-19.2 0-35.357-11.842-41.278-30.080-5.921-18.242 0.318-37.281 15.839-48.479l50.238-36.48-19.196-59.041c-5.921-18.242 0.318-37.281 15.839-48.64 7.68-5.599 27.999-15.682 51.039 0l50.242 36.48 50.238-36.48c15.521-11.202 35.518-11.202 51.039 0 15.521 11.198 21.76 30.398 15.682 48.479l-19.2 59.041 50.238 36.48c15.36 11.359 21.603 30.398 15.682 48.64zM818.399 247.995c-7.358-5.438-10.558-14.877-7.68-23.68l22.243-74.88-62.563 45.44c-3.679 2.721-13.279 7.201-24.96 0l-64.318-44.317 23.841 73.6c2.878 8.799-0.322 18.238-7.68 23.68l-61.923 47.517h77.44c9.121 0 17.28 5.921 20.162 14.563l24.96 74.397c0.801 0 0.797-0.157 1.119-0.797l23.841-73.6c2.878-8.803 10.88-14.563 20.158-14.563l78.080-1.92-62.72-45.44z" />
<glyph unicode="&#xe91d;" glyph-name="30" d="M939.107 357.76c1.104 25.662-9.816 44.661-23.362 57.56 30.274 20.56 36.63 49.339 34.834 65.785 0 27.644-9.816 83.079-77.959 84.923h-135.318c-24.188-4.539-32.896 15.876-30.687 28.069 12.855 72.589 19.628 175.374 20.458 188.417 13.824 64.507-37.595 104.345-64.549 104.345-67.039 0-89.293-62.38-91.78-97.398 0.691-30.481-20.18-81.236-58.609-142.907-18.242-29.205-43.816-55.858-78.095-81.52-8.291-6.235-15.755-12.76-22.254-18.995 0 0 3.456 22.682-18.245 24.243h-82.794v72.87c0 10.349-8.155 18.714-18.245 18.714h-201.114c-10.090 0-18.245-8.365-18.245-18.714v-615.293c0-10.35 8.155-18.714 18.245-18.714h201.114c10.090 0 18.245 8.364 18.245 18.714v23.534h82.794c10.090 0 18.245 8.364 18.245 18.714v23.252c86.389-43.381 213.968-56.002 221.155-56.708l180.933-3.405c58.47 8.364 71.461 64.508 72.291 68.052 3.182 21.266-4.699 40.404-14.237 54.864 36.769 14.603 49.346 49.339 50.315 68.619 3.317 26.653-8.155 49.339-19.628 64.933 28.336 18.714 36.491 50.896 36.491 68.048zM274.256 46.57h-164.623v577.724h164.623v-577.724zM375.296 88.817h-64.549v443.893h64.549v-443.893zM873.589 436.304h-61.787c-10.090 0-18.245-8.364-18.245-18.714s8.155-18.714 18.245-18.714h61.648c6.912-2.695 30.409-13.755 29.166-40.265 0-1.419-0.552-34.593-33.865-43.524h-98.139c-10.090 0-18.242-8.364-18.242-18.714s8.152-18.714 18.242-18.714h93.992c8.016-7.94 24.327-27.22 21.563-49.053-0.552-6.663-5.391-40.265-49.62-41.541-0.139 0-0.139 0-0.278 0h-33.448c-10.090 0-18.245-8.364-18.245-18.714s8.155-18.714 18.245-18.714h27.366c8.986-8.788 22.532-25.801 20.319-40.832-0.274-1.273-7.877-31.045-38.012-37.851l-177.339 3.262c-1.521 0.139-145.134 14.318-223.228 61.528v353.865c5.804 8.364 20.732 27.787 43.816 44.943 38.012 28.496 66.622 58.408 87.358 91.726 43.538 69.894 65.24 125.044 64.271 162.046 0.139 2.41 4.977 59.403 53.354 60.82 9.955-3.545 38.704-16.304 29.996-63.514-0.139-1.134-7.325-111.008-19.906-184.588-4.008-23.676 5.808-76.558 67.73-72.729h135.457c0.139 0 40.36 3.544 40.086-48.486 0-0.424 4.838-29.063-40.499-43.524z" />
<glyph unicode="&#xe91e;" glyph-name="31" d="M638.398 553.918c69.921 0 126.881 56.96 126.881 126.881s-56.96 126.88-126.881 126.88c-69.921 0-126.881-56.96-126.881-126.88s56.96-126.881 126.881-126.881zM638.398 765.439c46.559 0 84.641-37.92 84.641-84.64s-37.921-84.64-84.641-84.64c-46.72 0-84.641 37.92-84.641 84.64s37.921 84.64 84.641 84.64zM381.118 605.599l53.599-8.96c0-0.16 0.161-0.16 0.161-0.32l-31.521-44.16c-5.921-8.481-5.12-20.001 2.242-27.202l76.8-76.957c7.358-7.362 18.878-8.32 27.198-2.242l44.16 31.521c0.161 0 0.161-0.161 0.322-0.161l8.96-53.599c1.759-10.24 10.558-17.602 20.798-17.602h108.8c10.401 0 19.2 7.523 20.802 17.602l8.96 53.599c0.157 0 0.157 0.161 0.318 0.161l44.16-31.521c8.481-6.078 20.001-5.12 27.202 2.242l76.957 76.957c7.362 7.362 8.32 18.882 2.242 27.202l-31.521 44.16c0 0.16 0.161 0.16 0.161 0.32l53.599 8.96c10.24 1.76 17.602 10.56 17.602 20.8v108.8c0 10.4-7.523 19.2-17.602 20.8l-53.599 8.96c0 0.16-0.161 0.16-0.161 0.32l31.521 44.16c6.078 8.48 5.12 20-2.242 27.2l-76.639 76.96c-7.358 7.36-18.878 8.32-27.198 2.24l-44.16-31.52c-0.161 0-0.161 0.16-0.322 0.16l-9.121 53.6c-1.759 10.24-10.558 17.6-20.798 17.6h-108.8c-10.401 0-19.2-7.52-20.802-17.6l-8.96-53.6c-0.157 0-0.157-0.16-0.318-0.16l-44.16 31.52c-8.481 6.080-20.001 5.12-27.202-2.24l-76.957-76.8c-7.362-7.36-8.32-18.88-2.242-27.2l31.521-44.16c0-0.16-0.161-0.16-0.161-0.32l-53.599-8.96c-10.24-1.76-17.6-10.56-17.6-20.8v-108.8c0-10.4 7.521-19.2 17.6-20.96zM405.756 717.279l47.843 8c7.68 1.28 13.919 6.56 16.479 13.92 2.238 6.56 4.959 13.12 7.998 19.36 3.361 6.88 2.721 15.2-1.759 21.44l-28.16 39.52 51.522 51.52 39.519-28.16c6.239-4.48 14.559-5.28 21.438-1.76 6.243 3.040 12.643 5.76 19.2 8 7.362 2.56 12.643 8.8 13.923 16.48l7.998 47.84h72.96l8.002-47.84c1.28-7.68 6.557-13.92 13.919-16.48 6.561-2.24 13.118-4.96 19.2-8 6.879-3.36 15.199-2.72 21.438 1.76l39.523 28.16 51.518-51.52-28.16-39.52c-4.48-6.24-5.12-14.56-1.759-21.6 3.039-6.24 5.76-12.64 7.998-19.2 2.56-7.36 8.803-12.64 16.483-13.92l47.839-8v-72.96l-47.839-8c-7.68-1.28-13.923-6.56-16.483-13.92-2.238-6.56-4.959-12.96-7.998-19.2-3.361-6.88-2.721-15.199 1.759-21.599l28.16-39.519-51.518-51.522-39.523 28.16c-6.239 4.48-14.559 5.12-21.438 1.759-6.239-3.039-12.639-5.76-19.2-7.998-7.362-2.56-12.639-8.799-13.919-16.479l-8.002-47.843h-72.96l-7.998 47.843c-1.28 7.68-6.561 13.919-13.923 16.479-6.557 2.238-13.118 4.959-19.2 7.998-6.879 3.361-15.199 2.721-21.438-1.759l-39.519-28.16-51.522 51.522 28.16 39.519c4.48 6.239 5.12 14.559 1.759 21.44-3.039 6.24-5.76 12.64-7.998 19.36-2.56 7.36-8.799 12.64-16.479 13.92l-47.843 8v72.96zM1015.998 286.241c-27.198 73.121-96.479 67.039-127.839 46.559l-208.318-128.318c-3.2 53.438-54.879 69.12-58.401 70.239l-181.76 59.52c-119.68 48.161-218.24 24.159-266.4 5.599v3.361c0 11.681-9.44 21.12-21.12 21.12h-127.040c-11.68 0-21.12-9.439-21.12-21.12v-346.88c0-11.681 9.44-21.12 21.12-21.12h126.88c11.68 0 21.12 9.439 21.12 21.12v5.921l299.2-59.041c1.119-0.318 65.28-15.521 156.16 28.8 0.64 0.322 1.441 0.801 2.081 1.119l347.838 218.88c38.722 26.401 48.161 65.763 37.599 94.241zM130.88 17.28h-84.64v304.801h84.64v-304.801zM955.842 227.84l-346.88-218.558c-75.363-36.48-125.923-25.282-127.364-24.96l-308.478 60.961v248.638c30.88 14.402 127.68 50.242 252.001 0.479l183.358-59.999c0.161 0 20.802-6.879 27.52-23.201 4.162-10.24 2.081-23.519-5.917-39.358-4.641-4.641-24.481-21.599-58.723-5.921-0.958 0.479-115.2 36.48-187.999 2.081-10.562-4.959-15.042-17.602-10.079-28.16 4.959-10.562 17.598-15.042 28.16-10.079 44.16 20.798 124.478 5.277 153.6-3.043 15.517-6.879 62.080-25.278 105.918 16.483l249.282 153.6c13.919 8.477 49.92 15.839 64.958-22.082 4.323-10.88 1.441-34.399-19.357-46.881z" />
<glyph unicode="&#xe91f;" glyph-name="32" d="M861.279 67.050v402.077c0 58.401-47.521 105.761-105.761 105.761h-111.36c-18.878 72.96-84.959 127.040-163.84 127.040-78.72 0-144.959-54.080-163.839-127.040h-111.36c-58.4 0-105.76-47.521-105.76-105.761v-402.238c-35.040 0-63.52-28.482-63.52-63.521s28.48-63.521 63.52-63.521h762.081c35.039 0 63.521 28.482 63.521 63.521-0.161 35.2-28.643 63.682-63.682 63.682zM755.361 532.648c35.039 0 63.517-28.478 63.517-63.521v-402.238h-63.517v63.521c0 119.837-77.283 221.758-184.32 259.518 47.199 30.080 78.559 82.721 78.559 142.72h105.761zM713.121 67.050h-465.601v63.517c0 128.322 104.48 232.803 232.799 232.803 128.322 0 232.803-104.481 232.803-232.803v-63.517zM480.318 659.689c70.082 0 127.042-56.96 127.042-127.040 0-70.078-56.96-127.038-127.042-127.038-70.078 0-127.039 56.96-127.039 127.038 0 70.080 56.961 127.040 127.039 127.040zM141.599 469.127c0 35.043 28.48 63.521 63.52 63.521h105.76c0-59.999 31.36-112.64 78.559-142.72-107.199-37.599-184.319-139.52-184.319-259.518v-63.521h-63.52v402.238zM861.279-17.591h-762.080c-11.68 0-21.12 9.439-21.12 21.12s9.44 21.12 21.12 21.12h761.919c11.681 0 21.12-9.439 21.12-21.12 0.161-11.681-9.278-21.12-20.959-21.12zM924.796 956h-254.080c-35.039 0-63.521-28.48-63.521-63.52v-127.040c0-35.040 28.482-63.52 63.521-63.52v-42.4c0-8 4.48-15.36 11.681-18.88 3.039-1.44 11.999-4.8 22.078 2.080l79.042 59.2h141.118c35.043 0 63.521 28.48 63.521 63.52v127.040c0.161 35.040-28.321 63.52-63.36 63.52zM945.916 765.44c0-11.68-9.439-21.12-21.12-21.12h-148.158c-4.641 0-8.96-1.44-12.643-4.16l-50.878-38.080v21.12c0 11.68-9.439 21.12-21.12 21.12h-21.12c-11.681 0-21.12 9.44-21.12 21.12v127.040c0 11.68 9.439 21.12 21.12 21.12h253.919c11.681 0 21.12-9.44 21.12-21.12v-127.040z" />
<glyph unicode="&#xe920;" glyph-name="33" d="M1023.962 267c0 149.258-100.57 279.665-242.388 318.961-8.916 207.758-180.698 374.039-390.61 374.039-215.602 0-391.001-175.398-391.001-390.999 0-70.267 18.703-138.68 54.219-198.743l-52.781-190.812 190.82 52.772c55.211-32.648 117.491-51.039 181.773-53.811 39.291-141.829 169.705-242.406 318.968-242.406 59.579 0 117.517 15.867 168.422 46.016l161.134-44.57-44.572 161.132c30.149 50.906 46.016 108.844 46.016 168.422zM201.689 297.093l-114.234-31.601 31.601 114.235-7.203 11.264c-33.945 53.11-51.89 114.665-51.89 178.010 0 182.515 148.484 330.999 331.001 330.999 182.515 0 331-148.484 331-330.999 0-182.518-148.485-331-331-331-63.345 0-124.892 17.946-178.009 51.891l-11.266 7.201zM936.471 23.493l-84.767 23.452-11.32-7.368c-43.884-28.508-94.866-43.576-147.423-43.576-117.312 0-220.398 75.85-256.922 184.617 179.64 20.71 322.596 163.663 343.314 343.311 108.756-36.531 184.609-139.617 184.609-256.929 0-52.554-15.071-103.539-43.579-147.423l-7.368-11.32 23.455-84.764zM360.963 417.999h59.999v-59.999h-59.999v59.999zM450.962 659.999c0-17.037-6.938-32.765-19.53-44.288l-70.469-64.499v-73.211h59.999v46.789l50.977 46.656c24.796 22.694 39.025 54.968 39.025 88.553 0 66.173-53.829 120.001-120 120.001-66.173 0-120-53.828-120-120.001h59.999c0 33.088 26.916 60.001 60.001 60.001s59.999-26.913 59.999-60.001z" />
<glyph unicode="&#xe921;" glyph-name="34" horiz-adv-x="1707" d="M614.392 863.457l-96.544 96.543-482.708-482.729 482.718-482.718 96.543 96.543-322.77 322.772h1415.036v136.533h-1405.331l313.057 313.057z" />
<glyph unicode="&#xe922;" glyph-name="35" horiz-adv-x="1707" d="M1092.273 863.457l96.543 96.543 482.714-482.729-482.72-482.718-96.543 96.543 322.772 322.772h-1415.038v136.533h1405.331l-313.057 313.057z" />
<glyph unicode="&#xe923;" glyph-name="36" horiz-adv-x="1308" d="M588.8 169.244c0-122.311-113.778-233.244-253.156-233.244-233.244 0-335.644 170.667-335.644 401.067 0 264.533 264.533 517.689 506.311 622.933l65.422-102.4c-199.111-96.711-347.022-227.556-369.778-446.578h82.489c88.178 0 179.2-14.222 241.778-76.8 42.667-45.511 62.578-102.4 62.578-164.978zM1308.444 169.244c0-122.311-113.778-233.244-253.156-233.244-233.244 0-332.8 173.511-332.8 401.067 0 264.533 264.533 517.689 506.311 622.933l65.422-102.4c-199.111-96.711-347.022-227.556-369.778-446.578 91.022 0 164.978 2.844 230.4-19.911 102.4-36.978 153.6-116.622 153.6-221.867z" />
<glyph unicode="&#xe924;" glyph-name="37" d="M810.665 874.666h-42.665v42.667c0 11.316-4.495 22.168-12.498 30.17s-18.852 12.497-30.167 12.497c-11.315 0-22.17-4.495-30.172-12.497s-12.498-18.854-12.498-30.17v-42.667h-341.331v42.667c0 11.316-4.495 22.168-12.497 30.17s-18.854 12.497-30.17 12.497c-11.316 0-22.168-4.495-30.17-12.497s-12.497-18.854-12.497-30.17v-42.667h-42.666c-56.559-0.068-110.782-22.565-150.775-62.559s-62.491-94.216-62.559-150.774v-511.998c0.068-56.561 22.566-110.781 62.559-150.779 39.993-39.992 94.216-62.49 150.775-62.556h597.331c56.561 0.067 110.781 22.564 150.779 62.556 39.992 39.997 62.49 94.218 62.556 150.779v511.998c-0.067 56.559-22.564 110.781-62.556 150.774-39.997 39.993-94.218 62.491-150.779 62.559zM85.334 661.334c0 33.948 13.486 66.505 37.49 90.509s56.562 37.491 90.51 37.491h597.331c33.951 0 66.509-13.486 90.511-37.491s37.489-56.562 37.489-90.509v-42.667h-853.331v42.667zM810.665 21.335h-597.331c-33.948 0-66.505 13.486-90.51 37.489s-37.49 56.561-37.49 90.511v383.998h853.331v-383.998c0-33.951-13.486-66.509-37.489-90.511s-56.561-37.489-90.511-37.489zM512 256c35.348 0 64 28.652 64 64s-28.652 64-64 64c-35.346 0-64-28.652-64-64s28.654-64 64-64zM298.666 256c35.346 0 64 28.652 64 64s-28.654 64-64 64c-35.346 0-64-28.652-64-64s28.654-64 64-64zM725.335 256c35.343 0 64 28.652 64 64s-28.657 64-64 64c-35.348 0-64-28.652-64-64s28.652-64 64-64z" />
<glyph unicode="&#xe925;" glyph-name="38" d="M512 757.334c-110.294 0-200-89.707-200-200 0-110.291 89.706-199.998 200-199.998s199.997 89.733 199.997 199.998c0 110.266-89.733 200-199.997 200zM512 437.335c-66.16 0-120 53.838-120 119.998s53.84 120 120 120c66.161 0 120.003-53.84 120.003-120s-53.842-119.998-120.003-119.998zM512 960c-287.093 0-512-224.907-512-512 0-288.108 225.92-512 512-512 286.454 0 512 224.323 512 512 0 287.093-224.906 512-512 512zM512 16c-94 0-180.054 28.559-250.24 77.681 47.093 93.384 144.187 154.322 250.24 154.322 106.056 0 203.146-60.938 250.24-154.322-70.185-49.096-156.242-77.681-250.24-77.681zM824.479 146.934c-25.999 45.466-61.706 84.772-105.201 115.441-60.877 42.931-132.557 65.623-207.278 65.623s-146.4-22.692-207.28-65.623c-43.493-30.669-79.2-69.975-105.2-115.441-74.373 77.251-119.52 182.907-119.52 301.066 0 242.24 189.76 432 432 432 242.237 0 432-189.76 432-432 0-118.159-45.148-223.816-119.521-301.066z" />
<glyph unicode="&#xe926;" glyph-name="39" horiz-adv-x="960" d="M627.693 301.718h-295.386c-88.103-0.096-172.572-34.803-234.87-96.509-62.299-61.702-97.341-145.366-97.437-232.63-0.003-4.803 0.95-9.562 2.805-14s4.574-8.47 8.003-11.866c3.429-3.398 7.501-6.090 11.982-7.926s9.284-2.781 14.133-2.781h886.155c4.848 0 9.651 0.944 14.131 2.781s8.554 4.528 11.981 7.926c3.43 3.395 6.15 7.427 8.003 11.866 1.856 4.438 2.81 9.197 2.806 14-0.096 87.264-35.139 170.928-97.437 232.63-62.298 61.706-146.768 96.413-234.87 96.509zM76.478 9.149c8.956 60.899 39.729 116.573 86.697 156.858s107 62.493 169.132 62.57h295.386c62.131-0.077 122.163-22.285 169.133-62.57 46.966-40.285 77.741-95.958 86.698-156.858h-807.045zM479.994 374.864c58.422 0 115.533 17.158 164.109 49.306 48.573 32.147 86.435 77.84 108.79 131.299 22.358 53.462 28.208 112.287 16.81 169.040s-39.53 108.884-80.838 149.8c-41.312 40.916-93.946 68.781-151.245 80.070-57.296 11.289-116.688 5.495-170.662-16.649-53.976-22.144-100.109-59.643-132.566-107.756s-49.781-104.678-49.781-162.543c0.090-77.565 31.239-151.93 86.615-206.778s130.455-85.702 208.769-85.789zM479.994 886.858c43.818 0 86.65-12.869 123.082-36.98s64.826-58.381 81.594-98.476c16.768-40.095 21.155-84.214 12.608-126.778-8.55-42.566-29.648-81.664-60.63-112.352-30.982-30.685-70.458-51.584-113.434-60.051-42.973-8.467-87.517-4.122-127.997 12.486-40.483 16.608-75.082 44.733-99.425 80.816-24.343 36.086-37.336 78.509-37.336 121.908 0.064 58.176 23.425 113.951 64.959 155.088s97.843 64.275 156.579 64.339z" />
<glyph unicode="&#xe927;" glyph-name="40" d="M690.606 876.651v-904.931c0-19.719-16.005-35.721-35.724-35.721h-571.533c-22.099 0-43.294 8.762-58.916 24.433-15.67 15.623-24.433 36.816-24.433 58.918v857.301c0 22.099 8.764 43.294 24.433 58.916 15.622 15.67 36.816 24.433 58.916 24.433h523.907c22.098 0 43.295-8.764 58.914-24.433 15.671-15.622 24.436-36.816 24.436-58.916zM619.162 876.651c0 3.143-1.236 6.192-3.475 8.43s-5.287 3.477-8.431 3.477h-523.907c-3.143 0-6.191-1.238-8.43-3.477s-3.477-5.287-3.477-8.43v-857.301c0-3.144 1.238-6.192 3.477-8.431s5.287-3.478 8.43-3.478h535.813v869.21zM500.098 281.3v-309.583c0-19.719-16.002-35.721-35.721-35.721h-238.14c-19.718 0-35.721 16.002-35.721 35.721v309.583c0 15.811 6.287 30.908 17.432 42.103 11.193 11.145 26.338 17.432 42.103 17.432h190.511c15.766 0 30.911-6.287 42.103-17.432 11.145-11.196 17.432-26.293 17.432-42.103zM261.959 269.391v-261.953h166.698v261.953h-166.698zM1024.003 590.886v-571.535c0-46.056-37.338-83.35-83.347-83.35h-285.768c-19.719 0-35.724 16.005-35.724 35.721v666.792c0 19.718 16.005 35.721 35.724 35.721h285.768c46.008 0 83.347-37.293 83.347-83.348zM952.562 590.886c0 6.571-5.335 11.906-11.906 11.906h-250.047v-595.35h250.047c6.571 0 11.906 5.335 11.906 11.909v571.535zM166.7 805.2h71.442v-71.442h-71.442v71.442zM166.7 638.5h71.442v-71.443h-71.442v71.443zM166.7 471.801h71.442v-71.444h-71.442v71.444zM309.583 805.2h71.44v-71.442h-71.44v71.442zM309.583 638.5h71.44v-71.443h-71.44v71.443zM309.583 471.801h71.44v-71.444h-71.44v71.444zM452.468 805.2h71.441v-71.442h-71.441v71.442zM785.865 507.532h71.444v-71.441h-71.444v71.441zM785.865 340.835h71.444v-71.444h-71.444v71.444zM785.865 174.135h71.444v-71.444h-71.444v71.444zM452.468 638.5h71.441v-71.443h-71.441v71.443zM452.468 471.801h71.441v-71.444h-71.441v71.444z" />
<glyph unicode="&#xe928;" glyph-name="41" d="M341.333-64h34.133v136.533c0 28.228 22.972 51.2 51.2 51.2h170.667c28.228 0 51.2-22.972 51.2-51.2v-136.533h34.133v136.533c0 47.053-38.281 85.333-85.333 85.333h-9.216c16.282 18.142 26.283 42.018 26.283 68.267 0 56.474-45.926 102.4-102.4 102.4s-102.4-45.926-102.4-102.4c0-26.249 10.001-50.125 26.283-68.267h-9.216c-47.053 0-85.333-38.281-85.333-85.333v-136.533zM443.733 226.133c0 37.649 30.618 68.267 68.267 68.267s68.267-30.618 68.267-68.267c0-37.649-30.618-68.267-68.267-68.267s-68.267 30.618-68.267 68.267zM409.6 72.533h34.133v-136.533h-34.133v136.533zM580.267 72.533h34.133v-136.533h-34.133v136.533zM681.776 540.877c-2.031 6.059-7.287 10.496-13.602 11.452l-97.126 14.831-43.605 92.877c-2.816 6.007-8.823 9.83-15.445 9.83s-12.629-3.823-15.445-9.813l-43.605-92.877-97.126-14.831c-6.315-0.973-11.571-5.393-13.602-11.452-2.032-6.059-0.495-12.766 3.959-17.34l70.775-72.533-16.742-102.656c-1.058-6.451 1.69-12.937 7.014-16.708 5.342-3.772 12.39-4.13 18.091-0.99l86.682 47.906 86.682-47.906c2.56-1.417 5.41-2.133 8.243-2.133 3.447 0 6.895 1.058 9.83 3.123 5.325 3.772 8.073 10.257 7.014 16.708l-16.742 102.656 70.775 72.533c4.489 4.557 6.007 11.247 3.977 17.323zM576.577 468.668c-3.789-3.874-5.495-9.318-4.625-14.66l12.476-76.459-64.188 35.465c-2.56 1.417-5.393 2.133-8.243 2.133s-5.683-0.717-8.243-2.133l-64.188-35.465 12.476 76.459c0.87 5.342-0.853 10.786-4.625 14.66l-53.606 54.938 73.301 11.196c5.615 0.87 10.445 4.471 12.868 9.626l32.017 68.198 32.017-68.215c2.423-5.154 7.253-8.755 12.868-9.626l73.301-11.196-53.606-54.921zM512 960c-109.773 0-213.521-34.253-301.295-98.577-11.264 8.226-25.037 13.244-40.038 13.244-37.649 0-68.267-30.618-68.267-68.267 0-13.722 4.147-26.436 11.127-37.154-73.25-90.778-113.527-204.254-113.527-321.246 0-109.756 34.253-213.504 98.577-301.295-8.226-11.281-13.244-25.037-13.244-40.038 0-37.649 30.618-68.267 68.267-68.267 13.773 0 26.573 4.181 37.308 11.23 33.638-27.136 70.212-50.108 109.21-67.891l14.165 31.061c-35.857 16.333-69.513 37.41-100.54 62.259 5.018 9.489 8.124 20.139 8.124 31.607 0 37.649-30.618 68.267-68.267 68.267-10.257 0-19.9-2.441-28.621-6.502-59.255 81.579-90.846 177.783-90.846 279.569 0 108.561 37.444 213.692 105.062 298.172 9.472-4.966 20.070-8.038 31.471-8.038 37.649 0 68.267 30.618 68.267 68.267 0 10.257-2.441 19.883-6.502 28.621 81.562 59.255 177.766 90.846 279.569 90.846 263.492 0 477.867-214.374 477.867-477.867 0-73.455-16.282-143.377-48.009-208.213-6.451 2.014-13.158 3.413-20.258 3.413-37.649 0-68.267-30.618-68.267-68.267 0-16.64 6.229-31.71 16.162-43.571-44.1-49.886-98.953-90.795-159.778-118.562l14.165-31.044c66.185 30.225 125.781 74.957 173.431 129.587 7.561-2.901 15.701-4.676 24.286-4.676 37.649 0 68.267 30.618 68.267 68.267 0 18.176-7.253 34.611-18.876 46.865 34.577 69.666 53.009 147.507 53.009 226.202 0 282.317-229.683 512-512 512zM187.733 106.667c0-18.825-15.309-34.133-34.133-34.133s-34.133 15.309-34.133 34.133c0 18.825 15.309 34.133 34.133 34.133s34.133-15.309 34.133-34.133zM170.667 772.267c-18.825 0-34.133 15.309-34.133 34.133s15.309 34.133 34.133 34.133c18.825 0 34.133-15.309 34.133-34.133s-15.309-34.133-34.133-34.133zM921.6 140.8c-18.825 0-34.133 15.309-34.133 34.133s15.309 34.133 34.133 34.133c18.825 0 34.133-15.309 34.133-34.133s-15.309-34.133-34.133-34.133zM733.867 772.267c-15.838 0-30.242-5.649-41.847-14.729-54.391 31.863-116.275 48.862-180.019 48.862-197.615 0-358.4-160.768-358.4-358.4 0-120.798 60.279-232.721 161.263-299.418l18.807 28.484c-91.392 60.348-145.937 161.638-145.937 270.933 0 178.807 145.459 324.267 324.267 324.267 56.149 0 110.694-14.541 158.925-41.899-3.413-8.124-5.325-17.015-5.325-26.368 0-37.649 30.618-68.267 68.267-68.267 12.749 0 24.559 3.738 34.782 9.847 43.554-56.371 67.618-125.798 67.618-197.581 0-112.896-57.344-215.945-153.395-275.644l18.039-28.979c106.121 65.963 169.489 179.831 169.489 304.623 0 80.913-27.648 159.147-77.619 222.123 5.786 10.018 9.353 21.487 9.353 33.877 0 37.649-30.618 68.267-68.267 68.267zM733.867 669.867c-18.825 0-34.133 15.309-34.133 34.133s15.309 34.133 34.133 34.133c18.825 0 34.133-15.309 34.133-34.133s-15.309-34.133-34.133-34.133z" />
<glyph unicode="&#xe929;" glyph-name="42" horiz-adv-x="1365" d="M1249.886 569.737c-0.009-0.013-0.026-0.013-0.034 0l-346.257 365.051c-31.872 33.608-83.558 33.608-115.435 0s-31.877-88.098 0-121.705l264.137-278.482h-966.963c-47.128 0-85.333-38.93-85.333-86.059s38.205-86.059 85.333-86.059h967.979l-265.152-279.548c-31.877-33.604-31.877-88.098 0-121.702 31.877-33.613 83.563-33.613 115.435 0l346.257 365.048c0.009 0.012 0.026 0.012 0.034 0 0.017-0.012 0.034-0.012 0.043 0l115.396 121.661c0.017 0.012 0.017 0.032 0 0.044-0.009 0.012-0.009 0.032 0 0.044 0.017 0.012 0.017 0.032 0 0.044l-115.396 121.661c-0.009 0.012-0.026 0.012-0.043 0z" />
<glyph unicode="&#xe92a;" glyph-name="43" horiz-adv-x="1103" d="M36.759 277.335c-20.3 0-36.759 16.979-36.759 37.923v265.483c0 20.944 16.459 37.926 36.759 37.926s36.759-16.981 36.759-37.926v-265.483c0-20.945-16.459-37.923-36.759-37.923zM606.523 960c273.629 0 496.246-229.685 496.246-512 0-282.313-222.618-512-496.246-512s-496.246 229.687-496.246 512c0 282.315 222.618 512 496.246 512zM606.523 884.148c-233.1 0-422.728-195.657-422.728-436.148s189.628-436.149 422.728-436.149c233.102 0 422.727 195.659 422.727 436.149s-189.625 436.148-422.727 436.148zM381.069 589.315l202.173-170.668c15.722-13.269 38.877-10.878 51.728 5.337 5.585 7.046 8.31 15.545 8.31 23.997 0 10.984-4.592 21.87-13.477 29.373l-202.177 170.665c-15.722 13.268-38.875 10.88-51.726-5.333-12.852-16.204-10.554-40.102 5.169-53.37z" />
<glyph unicode="&#xe92b;" glyph-name="44" horiz-adv-x="1109" d="M1097.875 800.118l-22.197 8.464c-3.492 11.666-8.203 22.92-14.074 33.626l9.66 21.551c3.006 6.7 1.534 14.542-3.699 19.729l-35.458 35.129c-5.231 5.185-13.15 6.643-19.915 3.665l-21.758-9.572c-10.81 5.816-22.165 10.483-33.937 13.939l-8.546 21.994c-2.656 6.844-9.295 11.358-16.698 11.358h-50.144c-7.403 0-14.039-4.516-16.698-11.358l-8.546-21.994c-11.772-3.457-23.132-8.123-33.939-13.939l-21.758 9.572c-6.767 2.978-14.679 1.52-19.913-3.665l-35.46-35.129c-5.233-5.185-6.705-13.026-3.701-19.729l9.66-21.546c-5.871-10.709-10.583-21.965-14.074-33.635l-22.193-8.462c-6.91-2.632-11.467-9.209-11.467-16.543v-7.115h-513.686c-47.737 0-86.573-38.474-86.573-85.768v-297.355l-5.614 2.47c-6.766 2.974-14.681 1.523-19.914-3.667l-35.459-35.127c-5.233-5.186-6.705-13.028-3.702-19.729l9.66-21.547c-5.873-10.709-10.583-21.967-14.075-33.636l-22.194-8.461c-6.907-2.63-11.465-9.207-11.465-16.538v-49.681c0-7.334 4.558-13.907 11.465-16.542l22.2-8.467c3.491-11.663 8.199-22.914 14.073-33.621l-9.664-21.557c-3.004-6.701-1.534-14.543 3.702-19.729l35.459-35.127c5.234-5.186 13.153-6.641 19.914-3.667l21.748 9.57c10.809-5.818 22.171-10.483 33.951-13.943l8.541-21.988c2.657-6.844 9.295-11.358 16.698-11.358h50.145c7.405 0 14.039 4.516 16.7 11.358l8.546 21.995c11.77 3.458 23.127 8.122 33.937 13.941l21.758-9.574c6.767-2.978 14.679-1.521 19.915 3.665l35.458 35.127c5.233 5.186 6.705 13.026 3.699 19.729l-4.301 9.598h45.129v-72.653h-86.652c-42.161 0-76.463-28.749-76.463-64.087v-46.362c0-9.79 8.011-17.726 17.892-17.726h607.012c9.882 0 17.892 7.936 17.892 17.726v46.362c0 35.339-34.302 64.087-76.463 64.087h-86.652v72.653h219.735c47.738 0 86.575 38.475 86.575 85.766v376.128c0.049 0.047 0.105 0.081 0.151 0.13l35.458 35.13c5.233 5.184 6.705 13.028 3.701 19.729l-9.66 21.545c5.871 10.709 10.583 21.965 14.074 33.636l22.193 8.461c6.908 2.633 11.465 9.21 11.465 16.544v49.679c0.006 7.332-4.553 13.908-11.458 16.543zM371.083 286.897c-3.296 9.954-7.439 19.607-12.499 28.836l9.66 21.551c3.004 6.699 1.534 14.541-3.699 19.729l-35.458 35.127c-5.235 5.184-13.152 6.639-19.915 3.667l-21.76-9.574c-10.81 5.815-22.167 10.483-33.939 13.941l-8.544 21.997c-2.66 6.842-9.299 11.358-16.7 11.358h-32.251v250.583h550.271c1.423-2.985 2.912-5.939 4.506-8.845l-9.664-21.555c-3.004-6.701-1.534-14.543 3.701-19.729l35.458-35.13c5.235-5.186 13.152-6.641 19.915-3.667l21.749 9.57c10.81-5.818 22.174-10.485 33.952-13.943l8.54-21.986c2.658-6.846 9.297-11.358 16.7-11.358h50.144c2.643 0 5.18 0.597 7.482 1.649v-272.222h-567.648zM189.335 741.009h513.686v-7.11c0-5.779 2.859-11.055 7.439-14.334h-522.847c-15.117 0-27.416-12.188-27.416-27.164v-273.306l-7.351-18.921c-4.847-1.423-9.602-3.102-14.298-4.93v295.447c0 27.744 22.784 50.317 50.788 50.317zM322.18 142.641l8.371-18.675-18.082-17.914-18.859 8.299c-5.391 2.372-11.618 1.958-16.642-1.107-12.742-7.77-26.556-13.444-41.060-16.866-5.739-1.353-10.436-5.421-12.555-10.876l-7.405-19.059h-25.576l-7.403 19.051c-2.118 5.457-6.817 9.525-12.556 10.878-14.518 3.422-28.335 9.099-41.070 16.866-5.025 3.068-11.254 3.479-16.644 1.109l-18.85-8.294-18.085 17.916 8.376 18.684c2.395 5.342 1.977 11.511-1.118 16.489-7.844 12.621-13.572 26.306-17.023 40.676-1.366 5.685-5.473 10.34-10.979 12.439l-19.235 7.337v25.335l19.23 7.334c5.506 2.099 9.613 6.754 10.979 12.439 3.453 14.383 9.181 28.073 17.025 40.691 3.093 4.977 3.511 11.147 1.118 16.489l-8.371 18.673 18.085 17.914 18.857-8.299c5.39-2.37 11.619-1.956 16.642 1.107 12.739 7.77 26.557 13.444 41.061 16.866 5.739 1.353 10.436 5.421 12.556 10.876l7.405 19.059h25.576l7.405-19.059c2.118-5.453 6.814-9.523 12.553-10.876 14.507-3.42 28.322-9.094 41.062-16.866 5.026-3.066 11.251-3.475 16.642-1.107l18.859 8.299 18.082-17.916-8.373-18.679c-2.396-5.342-1.978-11.511 1.116-16.491 7.844-12.621 13.572-26.306 17.026-40.678 1.363-5.685 5.472-10.34 10.978-12.439l19.234-7.334v-25.335l-19.23-7.334c-5.506-2.099-9.613-6.754-10.978-12.439-3.454-14.383-9.182-28.073-17.026-40.689-3.095-4.977-3.514-11.149-1.118-16.491zM852.971 0.090v-28.636h-571.228v28.636c0 15.522 18.628 28.636 40.678 28.636h489.871c22.050 0 40.678-13.114 40.678-28.636zM689.856 64.177h-245.001v72.653h245.001v-72.653zM945.376 172.282h-576.128c1.229 3.343 2.387 6.714 3.409 10.131l22.195 8.463c6.908 2.633 11.465 9.207 11.465 16.542v44.026h550.31c9.882 0 17.892 7.936 17.892 17.726v328.043c5.419 2.253 10.733 4.762 15.915 7.548l5.732-2.524v-379.639c0-27.744-22.784-50.315-50.79-50.315zM1073.555 746.067l-19.23-7.334c-5.506-2.099-9.613-6.754-10.98-12.439-3.454-14.381-9.18-28.068-17.026-40.687-3.093-4.979-3.511-11.149-1.118-16.491l8.371-18.673-18.086-17.918-18.859 8.299c-5.393 2.37-11.616 1.958-16.644-1.107-12.738-7.772-26.551-13.446-41.056-16.864-5.739-1.355-10.438-5.423-12.557-10.878l-7.405-19.057h-25.574l-7.405 19.051c-2.116 5.455-6.816 9.525-12.555 10.878-14.513 3.42-28.331 9.094-41.071 16.866-5.024 3.061-11.249 3.477-16.644 1.107l-18.848-8.294-18.082 17.918 8.375 18.679c2.394 5.344 1.978 11.511-1.116 16.489-7.844 12.621-13.572 26.308-17.024 40.678-1.367 5.685-5.474 10.338-10.98 12.437l-19.236 7.339v25.337l19.228 7.332c5.506 2.098 9.613 6.751 10.978 12.437 3.456 14.382 9.184 28.071 17.028 40.69 3.093 4.979 3.511 11.148 1.118 16.49l-8.371 18.674 18.084 17.914 18.859-8.298c5.391-2.373 11.622-1.959 16.644 1.106 12.74 7.771 26.554 13.445 41.058 16.864 5.739 1.354 10.438 5.422 12.555 10.877l7.407 19.057h25.574l7.405-19.057c2.118-5.455 6.818-9.523 12.557-10.877 14.505-3.419 28.32-9.093 41.058-16.864 5.024-3.065 11.251-3.479 16.644-1.106l18.857 8.298 18.086-17.917-8.373-18.679c-2.396-5.342-1.978-11.511 1.116-16.49 7.842-12.621 13.57-26.308 17.024-40.679 1.365-5.686 5.474-10.341 10.98-12.439l19.234-7.334v-25.335zM906.18 870.674c-62.302 0-112.988-50.216-112.988-111.94s50.686-111.938 112.988-111.938c62.302 0 112.992 50.217 112.992 111.938s-50.69 111.94-112.992 111.94zM906.18 682.249c-42.571 0-77.203 34.31-77.203 76.486s34.633 76.488 77.203 76.488c42.571 0 77.207-34.311 77.207-76.488-0.002-42.171-34.637-76.486-77.207-76.486zM203.159 344.196c-62.302 0-112.989-50.214-112.989-111.94 0-61.724 50.688-111.936 112.989-111.936s112.992 50.214 112.992 111.936c0 61.724-50.69 111.94-112.992 111.94zM203.159 155.774c-42.571 0-77.204 34.31-77.204 76.484 0 42.176 34.633 76.489 77.204 76.489s77.206-34.31 77.206-76.489c-0.002-42.174-34.635-76.484-77.206-76.484zM614.15 590.020l-59.019-218.206c-2.144-7.919-9.372-13.146-17.274-13.146-1.534 0-3.091 0.198-4.642 0.608-9.545 2.534-15.211 12.254-12.651 21.711l59.019 218.206c2.558 9.457 12.373 15.063 21.914 12.535 9.545-2.532 15.209-12.254 12.653-21.709zM491.607 552.23l-79.927-66.726 79.927-66.729c7.556-6.308 8.518-17.491 2.153-24.977-3.541-4.16-8.599-6.304-13.694-6.304-4.073 0-8.162 1.37-11.52 4.171l-96.166 80.284c-4.034 3.366-6.362 8.329-6.362 13.555s2.327 10.189 6.362 13.555l96.166 80.282c7.556 6.308 18.844 5.353 25.214-2.131 6.368-7.488 5.406-18.671-2.153-24.979zM768.691 485.504c0-5.227-2.327-10.189-6.362-13.555l-96.166-80.284c-3.358-2.803-7.45-4.171-11.52-4.171-5.092 0-10.153 2.142-13.694 6.304-6.366 7.486-5.402 18.669 2.153 24.977l79.927 66.729-79.927 66.726c-7.554 6.308-8.521 17.491-2.153 24.979 6.37 7.484 17.66 8.439 25.214 2.131l96.166-80.282c4.034-3.371 6.362-8.329 6.362-13.555z" />
<glyph unicode="&#xe92d;" glyph-name="46" d="M493.544 852.324c7.587 5.058 17.471 5.058 25.058 0l379.482-252.989c6.286-4.189 10.059-11.243 10.059-18.793v-411.106c0-14.378-5.713-28.166-15.878-38.334-10.168-10.168-23.956-15.878-38.334-15.878h-695.718c-14.378 0-28.167 5.71-38.333 15.878s-15.878 23.956-15.878 38.334v411.106c0 7.55 3.775 14.604 10.059 18.793l379.484 252.989zM149.178 568.453v-399.017c0-2.397 0.952-4.695 2.646-6.391 1.694-1.693 3.993-2.644 6.389-2.644h695.718c2.397 0 4.695 0.952 6.388 2.644 1.696 1.696 2.647 3.994 2.647 6.391v399.017l-356.894 237.929-356.895-237.929zM108.198 593.643c7.242 10.159 21.348 12.52 31.505 5.28l304.598-217.169h123.543l304.598 217.169c10.159 7.24 24.263 4.879 31.506-5.28 7.24-10.159 4.876-24.263-5.28-31.506l-310.486-221.365c-3.825-2.729-8.412-4.195-13.11-4.195h-137.999c-4.701 0-9.285 1.467-13.113 4.195l-310.483 221.365c-10.158 7.243-12.521 21.347-5.279 31.506z" />
</font>
</defs>
</svg>
